Космические путешествия / Cosmic Journeys (Томас Лукас / Thomas Lucas) [2009-2014, Научно-популярный, HDRip-AVC, 1080p] (VO Lord32x)

 
Автор Сообщение

TorrentFilm ®

Пол:

Стаж: 2 года

Сообщений: 7741



Награды: Нет

Торрент-статистика

Создавать темы 27-Апр-2015 00:04

[Цитировать]

Cosmic Journeys
Космические путешествия
Годы выпуска: 2009-2014
Страна: США
Жанр: Научно-популярный
Продолжительность: 5 из 29 серий по ~25 минут
Перевод: Любительский (одноголосый)
Над переводом работали:
Lord32x - озвучивание
Aelita XXII (Space Age) - перевод с английского
Slavnus Spacedust - идея и организация работы
Русские субтитры: есть (вшитые, softsub)
Оригинальная аудиодорожка: есть, английский
Режиссер: Томас Лукас / Thomas LucasОписание: поиск экзопланет, природа гамма-всплесков, загадки чёрных дыр и тёмной энергии... самые интересные вопросы современной астрономии, астрофизики и космологии.IMDbАннотации к эпизодам (на английском)
Сэмпл: http://sendfile.su/1110833
Качество: WEB-DL 1080p
Формат: MKV
Видео: AVC, 1920x1080, 16:9, ~2000-2600 kbps, 29.970 и 30 fps
Аудио (Russian): AC3, 192 kbps, 48 kHz, 2 ch
Аудио (English): AC3, 192 kbps, 48 kHz, 2 ch

Список серий

Серии между собой не связаны, можно смотреть выборочно и в любой последовательности.
В разных источниках нумерация и названия серий немного варьируются.
Имеющиеся в раздаче серии отмечены жирным шрифтом, а также даны ссылки на раздачи других серий.
01. Birth of the Moon (2009)
02. Attack of the Sun (2009)
03. Загадочные спутники Сатурна / Saturn's Mysterious Moons (2009)
04. Mars World That Never Was (2009)
05. Super Hurricanes (2009)
06. Крупнейшие чёрные дыры во Вселенной / The Largest Black Holes In The Universe (2009)
07. How Large Is The Universe? (2009)
08. When Will Time End (2009)
09. The Incredible Journey Of Apollo 12 (2009)
10. Supermassive Black Hole in the Milky Way Galaxy (2009)
11. В поисках планет земного типа / The Search For Earth Like Planets (2010)
12. Полёт до Пандоры / Voyage To Pandora (2010)
13. Венера: Смерть планеты / Venus: Death of a Planet (2010)
14. The Most Powerful Objects in the Universe (2010)
15. Is the Universe Infinite? (2010)
16. Alien Planets & Eyeball Earths (2011)
17. The Riddle of AntiMatter (2011)
18. Тайны тёмной Вселенной / Mysteries of a Dark Universe (2011)
19. Crashing Into The Moon (2012)
20. Рождение чёрной дыры / Birth of a Black Hole (2012)
21. Plasma Rockets & Solar Storms (2013)
22. Voyager: Journey to the Stars (2013)
23. Earth in 1000 Years (2013)
24. Reinventing Space Flight (2014)
25. Supervolcanoes (2014)
26. Fate of Antarctica (2014)
27. Life: Destiny or Chance? (2014)
28. Interstellar Flight (2014)
29. The Age of Hubble (2014)

MediaInfo06 - Крупнейшие чёрные дыры во Вселенной / The Largest Black Holes In The Universe

GeneralUnique ID : 245500874451463414141945851778118063492 (0xB8B1BFA0D65972F0819BD6C8ECBA1584)Complete name : M:\05. SpaceDust\01.Space\02.USA\+Cosmic Journeys\06 - The Largest Black Holes in the Universe.mkvFormat : MatroskaFormat version : Version 4 / Version 2File size : 486 MiBDuration : 24mn 58sOverall bit rate : 2 723 KbpsEncoded date : UTC 2015-04-19 17:40:33Writing application : mkvmerge v7.1.0 ('Good Love') 32bit built on Jul 27 2014 12:59:18Writing library : libebml v1.3.0 + libmatroska v1.4.1DURATION : 00:24:11.539000000NUMBER_OF_FRAMES : 187NUMBER_OF_BYTES : 23203_STATISTICS_WRITING_APP : mkvmerge v7.1.0 ('Good Love') 32bit built on Jul 27 2014 12:59:18_STATISTICS_WRITING_DATE_UTC : 2015-04-19 17:40:33_STATISTICS_TAGS : BPS DURATION NUMBER_OF_FRAMES NUMBER_OF_BYTES
VideoID : 1Format : AVCFormat/Info : Advanced Video CodecFormat profile : High@L4.0Format settings, CABAC : YesFormat settings, ReFrames : 3 framesCodec ID : V_MPEG4/ISO/AVCDuration : 24mn 58sWidth : 1 920 pixelsHeight : 1 080 pixelsDisplay aspect ratio : 16:9Frame rate mode : ConstantFrame rate : 29.970 fpsColor space : YUVChroma subsampling : 4:2:0Bit depth : 8 bitsScan type : ProgressiveDefault : YesForced : No
Audio #1ID : 2Format : AC-3Format/Info : Audio Coding 3Mode extension : CM (complete main)Format settings, Endianness : BigCodec ID : A_AC3Duration : 24mn 58sBit rate mode : ConstantBit rate : 192 KbpsChannel(s) : 2 channelsChannel positions : Front: L RSampling rate : 48.0 KHzBit depth : 16 bitsCompression mode : LossyStream size : 34.3 MiB (7%)Language : RussianDefault : YesForced : Yes
Audio #2ID : 3Format : AACFormat/Info : Advanced Audio CodecFormat profile : LCCodec ID : A_AACDuration : 24mn 58sChannel(s) : 2 channelsChannel positions : Front: L RSampling rate : 44.1 KHzCompression mode : LossyDefault : NoForced : No
TextID : 4Format : UTF-8Codec ID : S_TEXT/UTF8Codec ID/Info : UTF-8 Plain TextDefault : YesForced : No

11 - В поисках планет земного типа / The Search For Earth Like Planets

GeneralUnique ID : 231586566633304297451378762918813531608 (0xAE39F34976453575899B7CF3B2C47DD8)Complete name : M:\05. SpaceDust\01.Space\02.USA\+Cosmic Journeys\11 - The Search For Earth-Like Planets.mkvFormat : MatroskaFormat version : Version 4 / Version 2File size : 586 MiBDuration : 27mn 9sOverall bit rate : 3 016 KbpsEncoded date : UTC 2015-04-17 16:01:10Writing application : mkvmerge v6.1.0 ('Old Devil') built on Mar 4 2013 09:10:42Writing library : libebml v1.3.0 + libmatroska v1.4.0
VideoID : 1Format : AVCFormat/Info : Advanced Video CodecFormat profile : High@L4.0Format settings, CABAC : YesFormat settings, ReFrames : 3 framesCodec ID : V_MPEG4/ISO/AVCDuration : 27mn 9sWidth : 1 920 pixelsHeight : 1 080 pixelsDisplay aspect ratio : 16:9Frame rate mode : ConstantFrame rate : 30.000 fpsColor space : YUVChroma subsampling : 4:2:0Bit depth : 8 bitsScan type : ProgressiveDefault : YesForced : No
Audio #1ID : 2Format : AC-3Format/Info : Audio Coding 3Mode extension : CM (complete main)Format settings, Endianness : BigCodec ID : A_AC3Duration : 27mn 9sBit rate mode : ConstantBit rate : 192 KbpsChannel(s) : 2 channelsChannel positions : Front: L RSampling rate : 48.0 KHzBit depth : 16 bitsCompression mode : LossyStream size : 37.3 MiB (6%)Title : Lord32xLanguage : RussianDefault : YesForced : No
Audio #2ID : 3Format : AACFormat/Info : Advanced Audio CodecFormat profile : LCCodec ID : A_AACDuration : 27mn 9sChannel(s) : 2 channelsChannel positions : Front: L RSampling rate : 44.1 KHzCompression mode : LossyTitle : OriginalLanguage : EnglishDefault : NoForced : No
Text #1ID : 4Format : UTF-8Codec ID : S_TEXT/UTF8Codec ID/Info : UTF-8 Plain TextLanguage : RussianDefault : YesForced : No
Text #2ID : 5Format : UTF-8Codec ID : S_TEXT/UTF8Codec ID/Info : UTF-8 Plain TextLanguage : EnglishDefault : NoForced : No

13 - Венера: Смерть планеты / Venus: Death of a Planet

GeneralUnique ID : 246798841380425354833032565440909235474 (0xB9ABBA56B3A5C25D98DF464AFFFD5512)Complete name : M:\05. SpaceDust\01.Space\02.USA\+Cosmic Journeys\13 - Venus - Death of a Planet.mkvFormat : MatroskaFormat version : Version 4 / Version 2File size : 464 MiBDuration : 25mn 5sOverall bit rate : 2 588 KbpsEncoded date : UTC 2015-04-19 12:03:16Writing application : mkvmerge v6.1.0 ('Old Devil') built on Mar 4 2013 09:10:42Writing library : libebml v1.3.0 + libmatroska v1.4.0
VideoID : 1Format : AVCFormat/Info : Advanced Video CodecFormat profile : High@L4.0Format settings, CABAC : YesFormat settings, ReFrames : 3 framesCodec ID : V_MPEG4/ISO/AVCDuration : 25mn 5sWidth : 1 920 pixelsHeight : 1 080 pixelsDisplay aspect ratio : 16:9Frame rate mode : ConstantFrame rate : 29.970 fpsColor space : YUVChroma subsampling : 4:2:0Bit depth : 8 bitsScan type : ProgressiveDefault : YesForced : No
Audio #1ID : 2Format : AACFormat/Info : Advanced Audio CodecFormat profile : LCCodec ID : A_AACDuration : 25mn 5sChannel(s) : 2 channelsChannel positions : Front: L RSampling rate : 44.1 KHzCompression mode : LossyTitle : OriginalLanguage : EnglishDefault : YesForced : No
Audio #2ID : 3Format : AC-3Format/Info : Audio Coding 3Mode extension : CM (complete main)Format settings, Endianness : BigCodec ID : A_AC3Duration : 25mn 5sBit rate mode : ConstantBit rate : 192 KbpsChannel(s) : 2 channelsChannel positions : Front: L RSampling rate : 48.0 KHzBit depth : 16 bitsCompression mode : LossyStream size : 34.5 MiB (7%)Title : Lord32xLanguage : RussianDefault : NoForced : No
Text #1ID : 4Format : UTF-8Codec ID : S_TEXT/UTF8Codec ID/Info : UTF-8 Plain TextLanguage : RussianDefault : YesForced : No
Text #2ID : 5Format : UTF-8Codec ID : S_TEXT/UTF8Codec ID/Info : UTF-8 Plain TextLanguage : EnglishDefault : NoForced : No

18 - Тайны тёмной Вселенной / Mysteries of a Dark Universe

GeneralUnique ID : 211439401746120407127152024843202870425 (0x9F11BF5DC5F996749ECFA7A2DB203C99)Complete name : M:\05. SpaceDust\01.Space\02.USA\+Cosmic Journeys\18 - Mysteries of a Dark Universe.mkvFormat : MatroskaFormat version : Version 4 / Version 2File size : 489 MiBDuration : 25mn 0sOverall bit rate : 2 736 KbpsEncoded date : UTC 2015-04-20 09:01:44Writing application : mkvmerge v6.1.0 ('Old Devil') built on Mar 4 2013 09:10:42Writing library : libebml v1.3.0 + libmatroska v1.4.0
VideoID : 1Format : AVCFormat/Info : Advanced Video CodecFormat profile : High@L4.0Format settings, CABAC : YesFormat settings, ReFrames : 3 framesCodec ID : V_MPEG4/ISO/AVCDuration : 25mn 0sWidth : 1 920 pixelsHeight : 1 080 pixelsDisplay aspect ratio : 16:9Frame rate mode : ConstantFrame rate : 29.970 fpsColor space : YUVChroma subsampling : 4:2:0Bit depth : 8 bitsScan type : ProgressiveDefault : YesForced : No
Audio #1ID : 2Format : AC-3Format/Info : Audio Coding 3Mode extension : CM (complete main)Format settings, Endianness : BigCodec ID : A_AC3Duration : 25mn 0sBit rate mode : ConstantBit rate : 192 KbpsChannel(s) : 2 channelsChannel positions : Front: L RSampling rate : 48.0 KHzBit depth : 16 bitsCompression mode : LossyStream size : 34.3 MiB (7%)Title : Lord32xLanguage : RussianDefault : YesForced : No
Audio #2ID : 3Format : AACFormat/Info : Advanced Audio CodecFormat profile : LCCodec ID : A_AACDuration : 25mn 0sChannel(s) : 2 channelsChannel positions : Front: L RSampling rate : 44.1 KHzCompression mode : LossyTitle : OriginalLanguage : EnglishDefault : NoForced : No
Text #1ID : 4Format : UTF-8Codec ID : S_TEXT/UTF8Codec ID/Info : UTF-8 Plain TextLanguage : RussianDefault : YesForced : No
Text #2ID : 5Format : UTF-8Codec ID : S_TEXT/UTF8Codec ID/Info : UTF-8 Plain TextLanguage : EnglishDefault : NoForced : No

20 - Рождение чёрной дыры / Birth of a Black Hole

GeneralUnique ID : 233740516972027496541279467049636493920 (0xAFD8C93CE2D710EB8B68A5C6FB567A60)Complete name : M:\05. SpaceDust\01.Space\02.USA\+Cosmic Journeys\20 - Birth of a Black Hole.mkvFormat : MatroskaFormat version : Version 2File size : 559 MiBDuration : 25mn 0sOverall bit rate : 3 124 KbpsEncoded date : UTC 2015-04-23 09:02:41Writing application : mkvmerge v7.8.0 ('River Man') 32bit built on Apr 3 2015 12:11:22Writing library : libebml v1.3.1 + libmatroska v1.4.2
VideoID : 1Format : AVCFormat/Info : Advanced Video CodecFormat profile : High@L4.0Format settings, CABAC : YesFormat settings, ReFrames : 3 framesCodec ID : V_MPEG4/ISO/AVCDuration : 25mn 0sWidth : 1 920 pixelsHeight : 1 080 pixelsDisplay aspect ratio : 16:9Frame rate mode : ConstantFrame rate : 30.000 fpsColor space : YUVChroma subsampling : 4:2:0Bit depth : 8 bitsScan type : ProgressiveDefault : YesForced : No
Audio #1ID : 2Format : AC-3Format/Info : Audio Coding 3Mode extension : CM (complete main)Format settings, Endianness : BigCodec ID : A_AC3Duration : 25mn 0sBit rate mode : ConstantBit rate : 256 KbpsChannel(s) : 2 channelsChannel positions : Front: L RSampling rate : 48.0 KHzBit depth : 16 bitsCompression mode : LossyStream size : 45.8 MiB (8%)Title : Lord32xLanguage : RussianDefault : YesForced : No
Audio #2ID : 3Format : AACFormat/Info : Advanced Audio CodecFormat profile : LCCodec ID : A_AACDuration : 25mn 0sChannel(s) : 2 channelsChannel positions : Front: L RSampling rate : 44.1 KHzCompression mode : LossyTitle : OriginalLanguage : EnglishDefault : NoForced : No
Text #1ID : 4Format : UTF-8Codec ID : S_TEXT/UTF8Codec ID/Info : UTF-8 Plain TextLanguage : RussianDefault : YesForced : No
Text #2ID : 5Format : UTF-8Codec ID : S_TEXT/UTF8Codec ID/Info : UTF-8 Plain TextLanguage : EnglishDefault : NoForced : No

Скриншоты


06 - Крупнейшие чёрные дыры во Вселенной / The Largest Black Holes In The Universe
-11 - В поисках планет земного типа / The Search For Earth Like Planets
-13 - Венера: Смерть планеты / Venus: Death of a Planet
-18 - Тайны тёмной Вселенной / Mysteries of a Dark Universe
-20 - Рождение чёрной дыры / Birth of a Black Hole

Пример субтитров

12000:15:19,120 --> 00:15:26,120Эта компьютерная модель показывает эволюциюскопления галактик в ранней вселенной.
12100:15:29,769 --> 00:15:36,009Гравитация всей области притягиваетк своему центру тысячи маленьких галактик
12200:15:36,009 --> 00:15:41,068наряду с мощными потоками газа.
12300:15:42,068 --> 00:15:47,748Так почему центральная галактика, и чёрнаядыра, живущая в ней, не захватывают
12400:15:47,749 --> 00:15:54,749всё это вещество? Почему онине поглощают скопление целиком?
12500:15:56,399 --> 00:16:06,399Ответ можно увидеть в области под названиемMS0735. В 2,5 миллиардах световых лет от нас,
12600:16:06,399 --> 00:16:12,899в видимом свете она кажетсятипичным скоплением галактик.
12700:16:15,119 --> 00:16:24,139В рентгеновских лучах видно, что она окутанаоблаком горячего газа, около 50 млн. градусов.
12800:16:25,139 --> 00:16:32,139В этом облаке есть две громадные полости,до 600 тысяч световых лет в поперечнике.
12900:16:32,629 --> 00:16:39,629В каждой достаточно места, чтобы поместить600 галактик размером с наш Млечный Путь.
[Профиль] [ЛС]
Кто просматривает тему:

Форум Тема Автор Размер
National Geographic NG: Космическое путешествие "Хаббла" / Hubble's Cosmic Journey (Christopher Riley) [2014 г., Документальный, космос, HDTVRip 720p] skorpionN 1.41 GB
Action Space Trader: Merchant Marine / Космический Торговец [L] [RUS / ENG] (2008) TorrentFilm 125 MB
Игры [Android] Galaxy on Fire 2™ HD + Galaxy on Fire 2™ THD v1.0.3 - 2.0.1 [Космический симулятор, RUS] Richi Keeper 970 MB
Фантастика и фэнтези Авторский сборник - Космические байки (2014) MP3 Swager 374 MB
Фантастика, фэнтези Алекс Орлов (Вадим Дарищев) - Сборник произведений (63 книги) [1998-2015, Боевая фантастика, Космическая фантастика, Фэнтези, FB2] обновлено 13.02.2016 Garik014 81 MB
Фантастика, фэнтези Александр Золотько - Сборник произведений (41 книга) [1998-2016, Боевая фантастика, Детективная фантастика, Космическая фантастика, Фэнтези, Боевик, FB2] обновлено 14.02.2016 Garik014 48 MB
Фантастика, фэнтези Алексей Евтушенко - Сборник произведений (49 книг) 2000-2016 [Боевая фантастика, Космическая фантастика, Исторические приключения, Детективная фантастика, Фэнтези, FB2] обновлено 04.03.2016 Garik014 26 MB
Фантастика, фэнтези Алексей Чижовский - Сборник произведений (9 книг) [2013-2015, Боевая фантастика, Космическая фантастика, Фэнтези, FB2] Garik014 13 MB
Показать сообщения:    

Текущее время: Сегодня 16:53

Часовой пояс: GMT



Вы не можете начинать темы
Вы не можете отвечать на сообщения
Вы не можете редактировать свои сообщения
Вы не можете удалять свои сообщения
Вы не можете голосовать в опросах
Вы не можете прикреплять файлы к сообщениям
Вы не можете скачивать файлы