Коряжка женится / Щепка женится / Knerten gifter seg (Мартин Лунд / Martin Lund) [2010, Норвегия, Детский, семейный, комедия, HDRip] MVO + Original Nor

 
Автор Сообщение

TorrentFilm ®

Пол:

Стаж: 2 года

Сообщений: 7741



Награды: Нет

Торрент-статистика

Создавать темы 04-Май-2015 00:04

[Цитировать]

Коряжка женится / Knerten gifter seg
Страна: Норвегия
Жанр: Детский, семейный, комедия
Год выпуска: 2010
Продолжительность: 01:18:30
Перевод: Профессиональный (многоголосый закадровый)
Cубтитры: нет
Оригинальная аудиодорожка: норвежский
Режиссер: Мартин Лунд / Martin Lund
В ролях: Адриан Грённевик Смит, Эслейк Энгмарк, Пернилла Сёренсен, Самсайя, Петрус Кристенсен, Ян Гуннар Рёйзе и др.-Описание: Продолжение истории о маленьком мальчике по имени Лиллеброр и его друге Коряжке. Когда мама мальчика попадает в загадочную аварию на велосипеде, Лиллеброр и Коряжка перевернут город вверх тормашками, чтобы отыскать виновного. Но вместо этого найдут Коряжке невесту...-Качество видео: HDRip
Формат видео: AVI
Видео: XviD, 720x304 (2,35:1), 24 fps, ~2000 kbps
Аудио 1: AC3 Dolby Digital | 48 kHz | 2ch | 192 kbps (Rus)
Аудио 2: AC3 Dolby Digital | 48 kHz | 6ch | 448 kbps (Nor)

MediaInfo

ОбщееПолное имя : E:\FILMS\Knerten_gifter_seg_2010_HDRip.aviФормат : AVIФормат/Информация : Audio Video InterleaveРазмер файла : 1,46 ГбайтПродолжительность : 1 ч. 18 м.Общий поток : 2669 Кбит/секПрограмма кодирования : VirtualDubMod 1.5.10.2 (build 2542/release)Библиотека кодирования : VirtualDubMod build 2542/release
ВидеоИдентификатор : 0Формат : MPEG-4 VisualПрофиль формата : Advanced Simple@L5Параметр BVOP формата : 2Параметр QPel формата : НетПараметр GMC формата : Без точки переходаПараметр матрицы формата : ВыборочнаяИдентификатор кодека : XVIDИдентификатор кодека/Подсказка : XviDПродолжительность : 1 ч. 18 м.Битрейт : 2015 Кбит/секШирина : 720 пикселейВысота : 304 пикселяСоотношение сторон : 2,35:1Частота кадров : 24,000 кадра/секЦветовое пространство : YUVСубдискретизация насыщенности : 4:2:0Битовая глубина : 8 битТип развёртки : ПрогрессивнаяМетод сжатия : С потерямиБит/(Пиксели*Кадры) : 0.384Размер потока : 1,10 Гбайт (75%)Библиотека кодирования : XviD 65
Аудио #1Идентификатор : 1Формат : AC-3Формат/Информация : Audio Coding 3Расширение режима : CM (complete main)Параметр Endianness формата : BigИдентификатор кодека : 2000Продолжительность : 1 ч. 18 м.Вид битрейта : ПостоянныйБитрейт : 192 Кбит/секКаналы : 2 каналаРасположение каналов : Front: L RЧастота : 48,0 КГцБитовая глубина : 16 битМетод сжатия : С потерямиРазмер потока : 108 Мбайт (7%)Выравнивание : Разделение по промежуткамПродолжительность промежутка : 42 мс. (1,00 видеокадр)Время предзагрузки промежутка : 500 мс.
Аудио #2Идентификатор : 2Формат : AC-3Формат/Информация : Audio Coding 3Расширение режима : CM (complete main)Параметр Endianness формата : BigИдентификатор кодека : 2000Продолжительность : 1 ч. 18 м.Вид битрейта : ПостоянныйБитрейт : 448 Кбит/секКаналы : 6 каналовРасположение каналов : Front: L C R, Side: L R, LFEЧастота : 48,0 КГцБитовая глубина : 16 битМетод сжатия : С потерямиРазмер потока : 252 Мбайт (17%)Выравнивание : Разделение по промежуткамПродолжительность промежутка : 42 мс. (1,00 видеокадр)Время предзагрузки промежутка : 500 мс.

Скриншоты



[Профиль] [ЛС]

Создавать темы 06-Авг-2015 22:35 (спустя 3 месяца 2 дня)

Топик был перенесен из форума Фильмы до 2014 года в форум Фильмы до 2012 года
sergej644
 

Создавать темы 12-Июн-2016 07:54 (спустя 1 год 1 месяц)

Топик был перенесен из форума Фильмы 2011 года в форум Фильмы 2010 года
Russian Mafia
 
Кто просматривает тему:

Показать сообщения:    

Текущее время: Сегодня 04:48

Часовой пояс: GMT



Вы не можете начинать темы
Вы не можете отвечать на сообщения
Вы не можете редактировать свои сообщения
Вы не можете удалять свои сообщения
Вы не можете голосовать в опросах
Вы не можете прикреплять файлы к сообщениям
Вы не можете скачивать файлы