Корпорация «Страх» / Fear, Inc. (2016) BDRip 720p | L1

 
Автор Сообщение

BOSS ®

Пол:

Стаж: 3 года

Сообщений: 7605

Откуда: ODESSA



Награды: 22 (Подробнее)

Mega Releaser 3 (Количество: 1) Top Releaser 3 (Количество: 1) Mega Seeder 5 (Количество: 1)
Торрент-статистика

Создавать темы 02-Авг-2017 17:26

[Цитировать]

Информация о фильме
Название: Корпорация «Страх»
Оригинальное название: Fear, Inc.
Год выхода: 2016
Жанр: ужасы, триллер, комедия
Режиссер: Винсент Машиал / Vincent Masciale
В ролях: Лукас Нефф, Кэйтлин Стэйси, Крис Маркетт, Стефани Дрэйк, Марк Мозес, Эбигейл Бреслин, Ричард Рили, Патрик Ренна, Наоми Гроссман, Лесли Джордан
О фильме:
Если вам в жизни не хватает острых впечатлений или вы обожаете фильмы ужасов и знаете все сцены убийств наизусть, обратитесь в корпорацию «Страх». Там изготовят на заказ ваши персональные страхи, и прежняя скучная жизнь вам покажется раем.


Страна: США
Студия: Amasia Entertainment, Lone Suspect Productions, Title Media
Продолжительность: 01:31:50
Перевод: Любительский одноголосный, закадровый [Хихикающий доктор]
Файл
Кодек: H.264
Качество: BDRip 720p | L1
Видео: AVC, 1280x544 (2.35:1), 23.976 fps ~ 5277 Kbps
Звук:
AC3, 48 KHz 6 ch ~ 640 Kb/s (русский)
AC3, 48 KHz 6 ch ~ 640 Kb/s (английский)
Субтитры:
английские

MI:

Общее
Уникальный идентификатор : 189071353385977006917296456592521894449 (0x8E3DD16FBC1A6C7AB9436EF1AA8B1A31)
Полное имя : Q:TorFFear.Inc.720p.mkv
Формат : Matroska
Версия формата : Version 2
Размер файла : 4,21 Гбайт
Продолжительность : 1 ч. 31 м.
Общий поток : 6558 Кбит/сек
Дата кодирования : UTC 2017-08-02 14:41:32
Программа кодирования : mkvmerge v5.4.0 ('Piper') built on Mar 10 2012 13:34:39
Библиотека кодирования : libebml v1.2.3 + libmatroska v1.3.0
Видео
Идентификатор : 1
Формат : AVC
Формат/Информация : Advanced Video Codec
Профиль формата : High@L4.1
Параметр CABAC формата : Да
Параметр ReFrames формата : 5 кадров
Идентификатор кодека : V_MPEG4/ISO/AVC
Продолжительность : 1 ч. 31 м.
Битрейт : 5277 Кбит/сек
Ширина : 1280 пикселей
Высота : 544 пикселя
Соотношение сторон : 2,35:1
Частота кадров : 23,976 кадра/сек
Цветовое пространство : YUV
Субдискретизация насыщенности : 4:2:0
Битовая глубина : 8 бит
Тип развёртки : Прогрессивная
Бит/(Пиксели*Кадры) : 0.316
Размер потока : 3,30 Гбайт (78%)
Библиотека кодирования : x264 core 150 r2833 df79067
Настройки программы : cabac=1 / ref=5 / deblock=1:0:0 / analyse=0x3:0x133 / me=umh / subme=8 / psy=1 / psy_rd=1.00:0.00 / mixed_ref=1 / me_range=16 / chroma_me=1 / trellis=1 / 8x8dct=1 / cqm=0 / deadzone=21,11 / fast_pskip=0 / chroma_qp_offset=-2 / threads=12 / lookahead_threads=2 / sliced_threads=0 / nr=0 / decimate=1 / interlaced=0 / bluray_compat=0 / constrained_intra=0 / bframes=3 / b_pyramid=2 / b_adapt=1 / b_bias=0 / direct=1 / weightb=1 / open_gop=0 / weightp=2 / keyint=250 / keyint_min=23 / scenecut=40 / intra_refresh=0 / rc_lookahead=40 / rc=2pass / mbtree=1 / bitrate=5277 / ratetol=1.0 / qcomp=0.60 / qpmin=0 / qpmax=69 / qpstep=4 / cplxblur=20.0 / qblur=0.5 / ip_ratio=1.40 / aq=1:1.00
Язык : English
Default : Да
Forced : Нет
DURATION : 01:31:50.264000000
NUMBER_OF_FRAMES : 132114
NUMBER_OF_BYTES : 3633990497
_STATISTICS_WRITING_APP : mkvmerge v13.0.0 ('The Juggler') 64bit
_STATISTICS_WRITING_DATE_UTC : 2017-07-17 12:30:49
_STATISTICS_TAGS : BPS DURATION NUMBER_OF_FRAMES NUMBER_OF_BYTES
Аудио #1
Идентификатор : 2
Формат : AC-3
Формат/Информация : Audio Coding 3
Расширение режима : CM (complete main)
Идентификатор кодека : A_AC3
Продолжительность : 1 ч. 31 м.
Вид битрейта : Постоянный
Битрейт : 640 Кбит/сек
Каналы : 6 каналов
Расположение каналов : Front: L C R, Side: L R, LFE
Частота : 48,0 КГц
Битовая глубина : 16 бит
Метод сжатия : С потерями
Размер потока : 420 Мбайт (10%)
Заголовок : Xixidok
Язык : Russian
Default : Да
Forced : Нет
Аудио #2
Идентификатор : 3
Формат : AC-3
Формат/Информация : Audio Coding 3
Расширение режима : CM (complete main)
Идентификатор кодека : A_AC3
Продолжительность : 1 ч. 31 м.
Вид битрейта : Постоянный
Битрейт : 640 Кбит/сек
Каналы : 6 каналов
Расположение каналов : Front: L C R, Side: L R, LFE
Частота : 48,0 КГц
Битовая глубина : 16 бит
Метод сжатия : С потерями
Размер потока : 420 Мбайт (10%)
Язык : English
Default : Нет
Forced : Нет
Текст
Идентификатор : 4
Формат : UTF-8
Идентификатор кодека : S_TEXT/UTF8
Идентификатор кодека/Информация : UTF-8 Plain Text
Язык : English
Default : Нет
Forced : Нет

Скриншоты

[Профиль] [ЛС]
Показать сообщения:    

Текущее время: Сегодня 07:09

Часовой пояс: GMT



Вы не можете начинать темы
Вы не можете отвечать на сообщения
Вы не можете редактировать свои сообщения
Вы не можете удалять свои сообщения
Вы не можете голосовать в опросах
Вы не можете прикреплять файлы к сообщениям
Вы не можете скачивать файлы