Король пингвинов / The Penguin King (2012) BDRip [H.264/720p]

 
Автор Сообщение

KottoSoft ®

Стаж: 2 года

Сообщений: 119



Награды: Нет

Торрент-статистика

Создавать темы 05-Дек-2014 21:53

[Цитировать]

-Король пингвинов / The Penguin King (2012) BDRip [H.264/720p]
Режиссер / Телекомпания: Энтони Геффен, Сиас Уилсон / Atlantic Productions, Galileo Digital Entertainment, Sky 3d
Страна: Великобритания
Год выпуска: 2012
Жанр: Документальный, научно-познавательный, природа
Описание: Южная Джорджия - одинокий остров в огромном океане. 900 миль от Антарктиды, имеющий протяженность всего 100 миль. Дикий пейзаж с горными хребтами, огромные ледники, равнины с гуляющими по ним ветрами наполовину погребенные под снегом и льдом. Три года назад Король пингвинов покинул свой дом. Теперь он возвращается к месту, где он родился и вырос: город пингвинов. Одно из наиболее густо заселенных и востребованных мест обитания во всем южном полушарии, и каким-то образом он должен основать свой в нем свой дом в нем и найти себе пару. Его история зачастую бывает комичной, иногда трагичной, и в конечном итоге торжествующая: ритуал формирования пары на одной из последних великих пустынь на нашей планете.
Продолжительность: 00:48:47
Перевод: Двухголосый закадровый (профессиональный, студия "Омикрон")
Субтитры: отсутствуют
Формат файла: MKV
Видеокодек: MPEG-4 AVC/H.264
Битрейт видео: ~5429 Кбит/с
Размер кадра: 1280 x 720
Качество видео: BDRip [720p]
Аудио 1: DTS, 6 ch, 48,0 КГц, 1510 Кбит/с (Русский)
Аудио 2: DTS, 6 ch, 48,0 КГц, 765 Кбит/с (Английский)

MediaInfo

Общее
Уникальный идентификатор : 220675720783310209170041753581857865009 (0xA604990DB7FF70608045CA7DCDC4FD31)
Полное имя : D:\Релизы\The.Penguin.King.2012.BDRip.720p.mkv
Формат : Matroska
Версия формата : Version 2
Размер файла : 4,40 Гбайт
Продолжительность : 1 ч. 20 м.
Общий поток : 7849 Кбит/сек
Название фильма : The Penguin King 3D (2012)
Дата кодирования : UTC 2013-05-03 19:13:56
Программа кодирования : mkvmerge v4.0.0 ('The Stars were mine') сборка от Jun 6 2010 16:18:42
Библиотека кодирования : libebml v1.0.0 + libmatroska v1.0.0
Видео
Идентификатор : 1
Формат : AVC
Формат/Информация : Advanced Video Codec
Профиль формата : [url=mailto:High@L4.1]High@L4.1[/url]
Параметр CABAC формата : Да
Параметр ReFrames формата : 7 кадров
Идентификатор кодека : V_MPEG4/ISO/AVC
Продолжительность : 1 ч. 20 м.
Битрейт : 5416 Кбит/сек
Ширина : 1280 пикселей
Высота : 720 пикселей
Соотношение сторон : 16:9
Режим частоты кадров : Постоянный
Частота кадров : 23,976 кадра/сек
Цветовое пространство : YUV
Субдискретизация насыщенности : 4:2:0
Битовая глубина : 8 бит
Тип развёртки : Прогрессивная
Бит/(Пиксели*Кадры) : 0.245
Размер потока : 3,03 Гбайт (69%)
Заголовок : The Penguin King 3D (2012)
Библиотека кодирования : x264 core 129 r2245 bc13772
Настройки программы : cabac=1 / ref=7 / deblock=1:-3:-3 / analyse=0x3:0x113 / me=umh / subme=10 / psy=1 / psy_rd=1.10:0.08 / mixed_ref=1 / me_range=24 / chroma_me=1 / trellis=2 / 8x8dct=1 / cqm=0 / deadzone=21,11 / fast_pskip=0 / chroma_qp_offset=-3 / threads=6 / lookahead_threads=1 / sliced_threads=0 / nr=0 / decimate=0 / interlaced=0 / bluray_compat=0 / constrained_intra=0 / bframes=8 / b_pyramid=2 / b_adapt=2 / b_bias=0 / direct=3 / weightb=1 / open_gop=0 / weightp=2 / keyint=250 / keyint_min=23 / scenecut=40 / intra_refresh=0 / rc_lookahead=50 / rc=crf / mbtree=1 / crf=18.0 / qcomp=0.65 / qpmin=0 / qpmax=69 / qpstep=4 / vbv_maxrate=50000 / vbv_bufsize=62500 / crf_max=0.0 / nal_hrd=none / ip_ratio=1.40 / aq=1:0.80
Язык : English
Default : Нет
Forced : Нет
Аудио #1
Идентификатор : 2
Формат : DTS
Формат/Информация : Digital Theater Systems
Режим : 16
Параметр Endianness формата : Big
Идентификатор кодека : A_DTS
Продолжительность : 1 ч. 20 м.
Вид битрейта : Постоянный
Битрейт : 1509 Кбит/сек
Каналы : 6 каналов
Расположение каналов : Front: L C R, Side: L R, LFE
Частота : 48,0 КГц
Битовая глубина : 24 бит
Метод сжатия : С потерями
Размер потока : 866 Мбайт (19%)
Заголовок : Russian DTS 5.1
Язык : Russian
Default : Да
Forced : Нет
Аудио #2
Идентификатор : 3
Формат : DTS
Формат/Информация : Digital Theater Systems
Режим : 16
Параметр Endianness формата : Big
Идентификатор кодека : A_DTS
Продолжительность : 1 ч. 20 м.
Вид битрейта : Постоянный
Битрейт : 768 Кбит/сек
Каналы : 6 каналов
Расположение каналов : Front: L C R, Side: L R, LFE
Частота : 48,0 КГц
Битовая глубина : 24 бит
Метод сжатия : С потерями
Задержка видео : 11 мс.
Размер потока : 441 Мбайт (10%)
Заголовок : English DTS 5.1
Язык : English
Default : Нет
Forced : Нет
Меню
00:00:00.000 : en:00:00:00.000
00:07:21.691 : en:00:07:21.691
00:11:55.006 : en:00:11:55.006
00:17:28.047 : en:00:17:28.047
00:25:29.653 : en:00:25:29.653
00:32:27.279 : en:00:32:27.279
00:36:24.641 : en:00:36:24.641
00:44:31.085 : en:00:44:31.085
00:50:05.211 : en:00:50:05.211
00:57:09.509 : en:00:57:09.509
01:01:56.004 : en:01:01:56.004
01:09:05.141 : en:01:09:05.141
Скриншоты:

Пожалуйста, не уходите с раздачи - помогите докачать другим. Если понравился релиз - жмите кнопку "Спасибо"!
[Профиль] [ЛС]
Кто просматривает тему:

Форум Тема Автор Размер
50/50 (Pop) VA - Королевская дискотека. Зажигают все! - 2014, MP3, 320 kbps sergej644 643 MB
Rock (Punk Rock) Король и Шут - Лучшее(2 CD) - 2013 [MP3, tracks, 320 kbps] sergej644 365 MB
Сhanson (Шансон) Виктор Королев - Полная коллекция хитов - 3 - 2015, MP3, 320 kbps Magnat 691 MB
Сhanson (Шансон) Виктор Королёв - Серия «SUPER HITS COLLECTION. 20 лучших песен» - 2012, FLAC (image+.cue), lossless sergej644 775 MB
Биографии и личности 1715: Король-Солнце умер! / La Mort de Louis XIV (1715: The Sun King is Dead !) (Сильви Февле / Sylvie Faiveley) [2015 г., Документально-игровой, история, SATRip] skorpionN 742 MB
Фильмы 2011 года 28 недель спустя / 28 Weeks Later (Хуан Карлос Фреснадильо / Juan Carlos Fresnadillo) [2007, Великобритания, Испания, ужасы, триллер, BDRip-AVC] Dub + DVO (П. Гланц и И. Королева) + Original (eng) +... TorrentFilm 4.11 GB
365 365: Изабелла и Колумб. Королевский посланник / Isabel y Colón: El Legado de un Reino [части 1-3 из 3] (Омар Плейте / Omar Pleite) [2008 г., Документальный, история, биографический, SATRip] skorpionN 1.13 GB
365 365: Мебель Версаля. От Короля-Солнце до Великой французской революции / Le Mobilier de Versailles. Du Roi-Soleil à la Révolution (Фабрис Урлье / Fabrice Hourlier) [2014 г., Документальный, история,... skorpionN 744 MB
Показать сообщения:    

Текущее время: Сегодня 12:35

Часовой пояс: GMT



Вы не можете начинать темы
Вы не можете отвечать на сообщения
Вы не можете редактировать свои сообщения
Вы не можете удалять свои сообщения
Вы не можете голосовать в опросах
Вы не можете прикреплять файлы к сообщениям
Вы не можете скачивать файлы