Король обезьян в 3Д / Xi you ji: Da nao tian gong / The Monkey King 3D (Поу-Сои Чинг / Pou-Soi Cheang) [2014, Боевик, Приключения, Семейный, BDrip-AVC] VO, Half OverUnder / Вертикальная анаморфная стереопара

 
Автор Сообщение

TorrentFilm ®

Пол:

Стаж: 2 года

Сообщений: 7741



Награды: Нет

Торрент-статистика

Создавать темы 04-Янв-2016 00:02

[Цитировать]

Король обезьян
Xi you ji: Da nao tian gong
The Monkey King
- Год выпуска: 2014
Страна: Китай, Гонконг, США (Filmko Entertainment, Mandarin Films, ...)
Жанр: Боевик, Приключения, Семейный
Продолжительность: 01:59:16
Озвучка: Любительская одноголосая закадровая - Виктор Береговых (Перевод - Ками & Рэйдзи)
Режиссер: Поу-Сои Чинг / Pou-Soi Cheang
В ролях: Донни Йен (Sun Wukong / Monkey King), Чоу Юнь-Фат (Jade Emperor), Аарон Квок (Bull Demon King), Итянь Хай (Master Puti), Питер Хо (Erlangshen), Джо Чэнь (Princess Iron Fan), Ся Цзытун (Ruxue), Келли Чен (Goddess of Mercy / Guanyin), Сиу-Фай Чунг (Heavenly King), Кэлвин Чэн Ка-Синь (Nezha), Чунг Хим Ло (Muzha), Гиги Люн (Chang'E)
Описание: Когда-то демоны пытались уничтожить Небесные Чертоги и сместить Нефритового Императора (Чоу Юнь-Фат), но их войско было разбито, а их предводителя (Аарон Квок) спасла сестра Императора, упросившая брата даровать ему жизнь. Чтобы исключить подобные бунты, богиня Ну Ва (Чжан Цзилин) возводит вокруг Небесных Чертогов защитный панцирь и заодно дарит жизнь маленькой обезьянке, которая вырастет в Сунь Укуна (Донни Йен) – отважного, но непоседливого воина. В будущем ему предстоит сыграть очень важную роль в надвигающемся повторном восстании демонов.-Премьера (мир): 30 января 2014
Бюджет: $100 000 000
Кассовые сборы: $175 100 000

. .
-Качество: BDRip (by Ash61)
Контейнер: MKV
Формат 3D: Half OverUnder / Вертикальная анаморфная стереопара
Порядок ракурсов: левый ракурс первый
Видео кодек: x264
Аудио кодек: AC3-Видео: AVC / 23,976 fps / 1920х1080p / 13.5 Mbps
Аудио:
#1 - Русский / AC3 / 48 KHz / 5.1 ch / 640 Kbps (VO - Виктор Береговых) (микс в 5.1 - Ash61)
#2 - Китайский / AC3 / 48 KHz / 5.1 ch / 640 Kbps (Original - BD 3D)
Субтитры: Внешние (SRT UTF-8) English Full

MediaInfo

General
Unique ID : 189721887619257444805259696666027624757 (0x8EBB1B401EFE0CF19F4E814ABBE20935)
Complete name : E:TheMonkeyKing(2014)3D-halfOU(Ash61)VOTheMonkeyKing(2014)3D-halfOU(Ash61)VO.mkv
Format : Matroska
Format version : Version 2
File size : 12.5 GiB
Duration : 1h 59mn
Overall bit rate : 15.0 Mbps
Movie name : Король обезьян / Xi you ji: Da nao tian gong / The Monkey King (2014) 3D
Encoded date : UTC 2014-04-05 06:03:25
Writing application : mkvmerge v5.8.0 ('No Sleep / Pillow') built on Sep 2 2012 15:37:04
Writing library : libebml v1.2.3 + libmatroska v1.3.0
Video
ID : 1
Format : AVC
Format/Info : Advanced Video Codec
Format profile : High@L4.1
Format settings, CABAC : Yes
Format settings, ReFrames : 4 frames
Codec ID : V_MPEG4/ISO/AVC
Duration : 1h 59mn
Bit rate : 13.5 Mbps
Width : 1 920 pixels
Height : 1 080 pixels
Display aspect ratio : 16:9
Frame rate mode : Constant
Frame rate : 23.976 fps
Color space : YUV
Chroma subsampling : 4:2:0
Bit depth : 8 bits
Scan type : Progressive
Bits/(Pixel*Frame) : 0.271
Stream size : 11.2 GiB (90%)
Title : BDRip by Ash61
Writing library : x264 core 129 r2245 bc13772
Encoding settings : cabac=1 / ref=4 / deblock=1:-3:-3 / analyse=0x3:0x113 / me=umh / subme=10 / psy=1 / psy_rd=1.00:0.15 / mixed_ref=1 / me_range=32 / chroma_me=1 / trellis=2 / 8x8dct=1 / cqm=0 / deadzone=21,11 / fast_pskip=1 / chroma_qp_offset=-3 / threads=12 / lookahead_threads=2 / sliced_threads=0 / nr=0 / decimate=1 / interlaced=0 / bluray_compat=0 / constrained_intra=0 / bframes=8 / b_pyramid=2 / b_adapt=2 / b_bias=0 / direct=3 / weightb=1 / open_gop=0 / weightp=2 / keyint=250 / keyint_min=23 / scenecut=40 / intra_refresh=0 / rc_lookahead=60 / rc=crf / mbtree=1 / crf=17.0 / qcomp=0.70 / qpmin=0 / qpmax=69 / qpstep=4 / vbv_maxrate=40000 / vbv_bufsize=30000 / crf_max=0.0 / nal_hrd=none / frame-packing=4 / ip_ratio=1.40 / aq=1:0.70
Language : Chinese
Default : Yes
Forced : No
Audio #1
ID : 2
Format : AC-3
Format/Info : Audio Coding 3
Mode extension : CM (complete main)
Format settings, Endianness : Big
Codec ID : A_AC3
Duration : 1h 59mn
Bit rate mode : Constant
Bit rate : 640 Kbps
Channel(s) : 6 channels
Channel positions : Front: L C R, Side: L R, LFE
Sampling rate : 48.0 KHz
Bit depth : 16 bits
Compression mode : Lossy
Stream size : 546 MiB (4%)
Title : Одноголосый закадровый - Виктор Береговых (микс в 5.1 - Ash61)
Language : Russian
Default : Yes
Forced : No
Audio #2
ID : 3
Format : AC-3
Format/Info : Audio Coding 3
Mode extension : CM (complete main)
Format settings, Endianness : Big
Codec ID : A_AC3
Duration : 1h 59mn
Bit rate mode : Constant
Bit rate : 640 Kbps
Channel(s) : 6 channels
Channel positions : Front: L C R, Side: L R, LFE
Sampling rate : 48.0 KHz
Bit depth : 16 bits
Compression mode : Lossy
Stream size : 546 MiB (4%)
Title : Original - BD 3D
Language : Chinese
Default : No
Forced : No
Menu
00:00:00.000 : :1
00:12:26.913 : :2
00:23:12.600 : :3
00:30:15.522 : :4
00:39:09.973 : :5
00:50:01.207 : :6
01:03:05.782 : :7
01:10:40.111 : :8
01:20:56.101 : :9
01:30:15.660 : :10
01:38:19.268 : :11
01:46:47.234 : :12

Для оценки 3Д - Анимированные скрины















[Профиль] [ЛС]
Кто просматривает тему:

Форум Тема Автор Размер
50/50 (Pop) VA - Королевская дискотека. Зажигают все! - 2014, MP3, 320 kbps sergej644 643 MB
Rock (Punk Rock) Король и Шут - Лучшее(2 CD) - 2013 [MP3, tracks, 320 kbps] sergej644 365 MB
Сhanson (Шансон) Виктор Королев - Полная коллекция хитов - 3 - 2015, MP3, 320 kbps Magnat 691 MB
Сhanson (Шансон) Виктор Королёв - Серия «SUPER HITS COLLECTION. 20 лучших песен» - 2012, FLAC (image+.cue), lossless sergej644 775 MB
Биографии и личности 1715: Король-Солнце умер! / La Mort de Louis XIV (1715: The Sun King is Dead !) (Сильви Февле / Sylvie Faiveley) [2015 г., Документально-игровой, история, SATRip] skorpionN 742 MB
Фильмы 2011 года 28 недель спустя / 28 Weeks Later (Хуан Карлос Фреснадильо / Juan Carlos Fresnadillo) [2007, Великобритания, Испания, ужасы, триллер, BDRip-AVC] Dub + DVO (П. Гланц и И. Королева) + Original (eng) +... TorrentFilm 4.11 GB
365 365: Изабелла и Колумб. Королевский посланник / Isabel y Colón: El Legado de un Reino [части 1-3 из 3] (Омар Плейте / Omar Pleite) [2008 г., Документальный, история, биографический, SATRip] skorpionN 1.13 GB
365 365: Мебель Версаля. От Короля-Солнце до Великой французской революции / Le Mobilier de Versailles. Du Roi-Soleil à la Révolution (Фабрис Урлье / Fabrice Hourlier) [2014 г., Документальный, история,... skorpionN 744 MB
Показать сообщения:    

Текущее время: Сегодня 02:14

Часовой пояс: GMT



Вы не можете начинать темы
Вы не можете отвечать на сообщения
Вы не можете редактировать свои сообщения
Вы не можете удалять свои сообщения
Вы не можете голосовать в опросах
Вы не можете прикреплять файлы к сообщениям
Вы не можете скачивать файлы