Король Лир (Григорий Козинцев) [1970, СССР, Драма, 2хDVD9] + Sub Rus, Eng, Fra, Deu, Ned, Esp, Ita, Port, Jap, Hebr, Chi, Ara, Sve / Original Rus / RUSCICO

 
Автор Сообщение

reversefile ®

Пол:

Стаж: 4 года 5 месяцев

Сообщений: 842

Откуда: ReverseFile.org



Награды: Нет

Торрент-статистика

Создавать темы 25-Июл-2014 01:06

[Цитировать]

Король Лир / RUSCICO Страна:СССР
Студия:Ленфильм
Жанр:Драма
Год выпуска:1970
Продолжительность:01:06:51+01:04:55
Производитель:RUSCICOCубтитры:Русские, Английские, Французские, Немецкие, Голландские, Испанские, Итальянские,Португальские, Японские, Иврит, Китайские, Арабские, Шведские КитайскиеОригинальная аудиодорожка:Русский
Премьера (мир):8.02.1971Режиссер:Григорий КозинцевСценарий:Григорий Козинцев, Борис Пастернак, Уильям Шекспир
Директор фильма:Михаил Шостак, Николай ЕлисеевОператор:Йонас ГрицюсКомпозитор:Дмитрий ШостаковичХудожник:Евгений Еней, Соломон Вирсаладзе, Всеволод УлиткоМонтаж:Е. МаханковаВ ролях:Юри Ярвет — король Лир (роль озвучил — Зиновий Гердт)
Эльза Радзинь — Гонерилья
Галина Волчек — Регана
Валентина Шендрикова — Корделия
Олег Даль — шут
Карлис Себрис — граф Глостер (роль озвучил — Григорий Гай)
Леонхард Мерзин — Эдгар (роль озвучил — Эммануил Виторган)
Регимантас Адомайтис — Эдмонд
Владимир Емельянов — Кент
Александр Вокач — герцог Корнуэльский
Донатас Банионис — герцог Олбенский (роль озвучил — Александр Демьяненко)
Алексей Петренко — Освальд
Юозас Будрайтис — король французский
Описание:Драма по одноименной трагедии В. Шекспира (перевод Бориса Пастернака, песни шута в переводе С. Маршака).История легендарного короля Лира, который на склоне лет решает удалиться от дел и разделить своё королевство между тремя дочерьми.Для определения размеров их частей он просит каждую из них сказать, как сильно она его любит. Две старшие дочери используют этот шанс,а младшая — Корделия — отказывается льстить, говоря, что её любовь выше этого.Разгневанный отец отрекается от младшей дочери и прогоняет графа Кента, пытавшегося заступиться за Корделию.Лир делит королевство между старшей и средней дочерьми…
Бонусы:Диск 1:У.Шекспир. Музыка Д.Шостаковича. "Мир короля Лира" Фильмографии. Фотоальбом. Смотрите на DVD.Диск 2:Интервью с Г.Волчек. Фильмографии. Фотоальбом. Смотрите наDVD.

Это интересно

Фильм- [url=http://ru.wikipedia.org/wiki/%D0%9A%D0%BE%D1%80%D0%BE%D0%BB%D1%8C_%D0%9B%D0%B8%D1%80_(%D1%84%D0%B8%D0%BB%D1%8C%D0%BC,_1970)]http://ru.wikipedia.org/wiki/%D0%9A%D0%BE%D1%80%D0%...%8C%D0%BC,_1970)[/url]Козинцев, Григорий Михайлович - http://ru.wikipedia.org/wiki/%D0%9A%D0%BE%D0%B7%D0%...0%B2%D0%B8%D1%87Ярвет, Юри Евгеньевич - http://ru.wikipedia.org/wiki/%D0%AF%D1%80%D0%B2%D0%...0%B2%D0%B8%D1%87

Награды и номинации

Главный приз "Золотая статуэтка крылатого тура" - Григорий Козинцев, 1972 год, МКФ в Тегеране;
Премия за лучшую мужскую роль - Юри Ярвет, 1972 год, МКФ в Тегеране;
Приз "Серебрянный Хьюго" - Григорий Козинцев, 1972 год, МКФ в Чикаго;
Золотая медаль - Григорий Козинцев, 1973 год, МКФ в Милане.

Сэмпл диск 1:[url=http://multi-up.com/969918]http://multi-up.com/969918

Сэмпл диск 2:http://multi-up.com/969919
Тип релиза:2xDVD9
Контейнер:DVD-Video
Меню:Русский, Английский, Французский, Анимированное, Озвученное
Видео:PAL 16:9 (720x576) VBR, Auto Letterboxed, 8083 Кбит/сек, 25,000 кадров/сек
Аудио 1:Русский: AC3, 6 ch, 48,0 КГц, 448 Kbps
Аудио 2:Английский: AC3, 6 ch, 48,0 КГц, 448 Kbps
Аудио 3:Французский: AC3, 6 ch, 48,0 КГц, 448 KbpsАудио 4:Русский: AC3, 1 ch, 48,0 КГц, 96 KbpsФормат субтитров:prerendered (DVD/IDX+SUB)

Dvd Info- Диск 1

Title: Диск 1
Size: 5.70 Gb ( 5 972 644,00 KBytes ) - DVD-9
Enabled regions: 1, 2, 3, 4, 5, 6, 7, 8
VTS_01 :
Play Length: 00:00:40
Video: PAL 4:3 (720x576) VBR
VTS_02 :
Play Length: 00:00:21
Video: PAL 4:3 (720x576) VBR
Audio:
English, AC3, 3/2 (L,C,R,SL,SR)+LFE ch, 448 kbps, Delay 240 mSec
VTS_03 :
Play Length: 01:06:51
Video: PAL 16:9 (720x576) VBR, Auto Letterboxed
Audio:
Russian, AC3, 3/2 (L,C,R,SL,SR)+LFE ch, 448 kbps, Delay 200 mSec
English, AC3, 3/2 (L,C,R,SL,SR)+LFE ch, 448 kbps, Delay 200 mSec
Francais, AC3, 3/2 (L,C,R,SL,SR)+LFE ch, 448 kbps, Delay 200 mSec
Russian, AC3, 1/0 (C) ch, 96 kbps, Delay 200 mSec
Subtitles:
Russian
English
Francais
Deutsch
Nederlands
Espanol
Italiano
Portugues
Japanese
Hebrew
Chinese
Arabic
Svenska
VTS_04 :
Play Length: 00:00:00
Video: PAL 4:3 (720x576) VBR
VTS_05 :
Play Length: 00:03:01
Video: PAL 4:3 (720x576) VBR
Audio:
Russian, AC3, 3/2 (L,C,R,SL,SR)+LFE ch, 448 kbps, Delay 0 mSec
Subtitles:
Not specified
English
Francais
Italiano
Espanol
VTS_06 :
Play Length: 00:01:42
Video: PAL 4:3 (720x576) VBR
Audio:
English, AC3, 2/0 (L,R) ch, 192 kbps, Delay 0 mSec
Subtitles:
Not specified
English
Francais
Italiano
Espanol
VTS_07 :
Play Length: 00:03:43
Video: PAL 16:9 (720x576) VBR, Auto Letterboxed
Audio:
English, AC3, 3/1 (L,C,R,SL)+LFE ch, 256 kbps, Delay 0 mSec
Subtitles:
Russian
English
Francais
VTS_08 :
Play Length: 00:02:49
Video: PAL 4:3 (720x576) VBR
Audio:
Russian, AC3, 3/0 (L,C,R) ch, 256 kbps, Delay 0 mSec
English, AC3, 3/0 (L,C,R) ch, 224 kbps, Delay 120 mSec
Subtitles:
Not specified
Not specified
Francais
VTS_09 :
Play Length: 00:03:04
Video: PAL 16:9 (720x576) VBR, Auto Letterboxed
Audio:
Russian, AC3, 3/0 (L,C,R) ch, 224 kbps, Delay 0 mSec
Francais, AC3, 3/0 (L,C,R) ch, 224 kbps, Delay 0 mSec
Subtitles:
Not specified
English

Dvd Info- Диск 2

Title: Диск 2
Size: 6.19 Gb ( 6 488 296,00 KBytes ) - DVD-9
Enabled regions: 1, 2, 3, 4, 5, 6, 7, 8
VTS_01 :
Play Length: 00:00:40
Video: PAL 4:3 (720x576) VBR
VTS_02 :
Play Length: 00:00:21
Video: PAL 4:3 (720x576) VBR
Audio:
English, AC3, 3/2 (L,C,R,SL,SR)+LFE ch, 448 kbps, Delay 240 mSec
VTS_03 :
Play Length: 01:04:55
Video: PAL 16:9 (720x576) VBR, Auto Letterboxed
Audio:
Russian, AC3, 3/2 (L,C,R,SL,SR)+LFE ch, 448 kbps, Delay 120 mSec
English, AC3, 3/2 (L,C,R,SL,SR)+LFE ch, 448 kbps, Delay 120 mSec
Francais, AC3, 3/2 (L,C,R,SL,SR)+LFE ch, 448 kbps, Delay 120 mSec
Russian, AC3, 1/0 (C) ch, 96 kbps, Delay 120 mSec
Subtitles:
Russian
English
Francais
Deutsch
Nederlands
Espanol
Italiano
Portugues
Japanese
Hebrew
Chinese
Arabic
Svenska
VTS_04 :
Play Length: 00:00:00
Video: PAL 4:3 (720x576) VBR
VTS_05 :
Play Length: 00:19:19
Video: PAL 4:3 (720x576) VBR
Audio:
Russian, AC3, 1/0 (C) ch, 128 kbps, Delay 0 mSec
Subtitles:
Not specified
English
Francais
Italiano
Espanol
VTS_06 :
Play Length: 00:04:35
Video: PAL 16:9 (720x576) VBR, Auto Letterboxed
Audio:
Russian, AC3, 3/0 (L,C,R) ch, 256 kbps, Delay 160 mSec
English, AC3, 3/0 (L,C,R) ch, 256 kbps, Delay 240 mSec
Francais, AC3, 3/0 (L,C,R) ch, 256 kbps, Delay 0 mSec
VTS_07 :
Play Length: 00:02:07
Video: PAL 4:3 (720x576) VBR
Audio:
Russian, AC3, 3/0 (L,C,R) ch, 224 kbps, Delay 240 mSec
Subtitles:
Not specified
English
Francais
VTS_08 :
Play Length: 00:02:36
Video: PAL 4:3 (720x576) VBR
Audio:
Russian, AC3, 3/1 (L,C,R,SL)+LFE ch, 256 kbps, Delay 0 mSec
English, AC3, 3/1 (L,C,R,SL)+LFE ch, 256 kbps, Delay 360 mSec
Francais, AC3, 3/1 (L,C,R,SL)+LFE ch, 256 kbps, Delay 280 mSec

MediaInfo- Диск 1

Общее
Полное имя: J:\King Lear_2xDVD9\Диск 1\VIDEO_TS\VTS_03_1.VOB
Формат : MPEG-PS
Размер файла : 1024 Мбайт
Продолжительность : 14 м.
Общий поток : 9716 Кбит/сек
Видео
Идентификатор : 224 (0xE0)
Формат : MPEG Video
Версия формата : Version 2
Профиль формата : Main@Main
Параметр BVOP формата : Да
Параметр матрицы формата : Выборочная
Параметр GOP формата : M=2, N=4
Продолжительность : 14 м.
Битрейт : 8083 Кбит/сек
Максимальный битрейт : 8000 Кбит/сек
Ширина : 720 пикселей
Высота : 576 пикселей
Соотношение сторон : 16:9
Частота кадров : 25,000 кадров/сек
Стандарт вещания : PAL
Цветовое пространство : YUV
Субдискретизация насыщенности : 4:2:0
Битовая глубина : 8 бит
Тип развёртки : Чересстрочная
Порядок развёртки : Верхнее поле первое
Метод сжатия : С потерями
Бит/(Пиксели*Кадры) : 0.780
Временной код первого кадра : 00:00:59:20
Оригинал временного кода : Group of pictures header
Размер потока : 852 Мбайт (83%)
Аудио #1
Идентификатор : 189 (0xBD)-128 (0x80)
Формат : AC-3
Формат/Информация : Audio Coding 3
Расширение режима : CM (complete main)
Параметр Endianness формата : Big
Режим смешивания : DVD-Video
Продолжительность : 14 м.
Вид битрейта : Постоянный
Битрейт : 448 Кбит/сек
Каналы : 6 каналов
Расположение каналов : Front: L C R, Side: L R, LFE
Частота : 48,0 КГц
Битовая глубина : 16 бит
Метод сжатия : С потерями
Задержка видео : 160 мс.
Размер потока : 47,2 Мбайт (5%)
Аудио #2
Идентификатор : 189 (0xBD)-129 (0x81)
Формат : AC-3
Формат/Информация : Audio Coding 3
Расширение режима : CM (complete main)
Параметр Endianness формата : Big
Режим смешивания : DVD-Video
Продолжительность : 14 м.
Вид битрейта : Постоянный
Битрейт : 448 Кбит/сек
Каналы : 6 каналов
Расположение каналов : Front: L C R, Side: L R, LFE
Частота : 48,0 КГц
Битовая глубина : 16 бит
Метод сжатия : С потерями
Задержка видео : 160 мс.
Размер потока : 47,2 Мбайт (5%)
Аудио #3
Идентификатор : 189 (0xBD)-130 (0x82)
Формат : AC-3
Формат/Информация : Audio Coding 3
Расширение режима : CM (complete main)
Параметр Endianness формата : Big
Режим смешивания : DVD-Video
Продолжительность : 14 м.
Вид битрейта : Постоянный
Битрейт : 448 Кбит/сек
Каналы : 6 каналов
Расположение каналов : Front: L C R, Side: L R, LFE
Частота : 48,0 КГц
Битовая глубина : 16 бит
Метод сжатия : С потерями
Задержка видео : 160 мс.
Размер потока : 47,2 Мбайт (5%)
Аудио #4
Идентификатор : 189 (0xBD)-131 (0x83)
Формат : AC-3
Формат/Информация : Audio Coding 3
Расширение режима : CM (complete main)
Параметр Endianness формата : Big
Режим смешивания : DVD-Video
Продолжительность : 14 м.
Вид битрейта : Постоянный
Битрейт : 96,0 Кбит/сек
Каналы : 1 канал
Расположение каналов : Front: C
Частота : 48,0 КГц
Битовая глубина : 16 бит
Метод сжатия : С потерями
Задержка видео : 160 мс.
Размер потока : 10,1 Мбайт (1%)
Текст #1
Идентификатор : 189 (0xBD)-33 (0x21)
Формат : RLE
Формат/Информация : Run-length encoding
Режим смешивания : DVD-Video
Продолжительность : 14 м.
Задержка видео : 320 мс.
Текст #2
Идентификатор : 189 (0xBD)-34 (0x22)
Формат : RLE
Формат/Информация : Run-length encoding
Режим смешивания : DVD-Video
Продолжительность : 14 м.
Задержка видео : 320 мс.
Текст #3
Идентификатор : 189 (0xBD)-35 (0x23)
Формат : RLE
Формат/Информация : Run-length encoding
Режим смешивания : DVD-Video
Продолжительность : 14 м.
Задержка видео : 320 мс.
Текст #4
Идентификатор : 189 (0xBD)-36 (0x24)
Формат : RLE
Формат/Информация : Run-length encoding
Режим смешивания : DVD-Video
Продолжительность : 14 м.
Задержка видео : 320 мс.
Текст #5
Идентификатор : 189 (0xBD)-37 (0x25)
Формат : RLE
Формат/Информация : Run-length encoding
Режим смешивания : DVD-Video
Продолжительность : 14 м.
Задержка видео : 320 мс.
Текст #6
Идентификатор : 189 (0xBD)-38 (0x26)
Формат : RLE
Формат/Информация : Run-length encoding
Режим смешивания : DVD-Video
Продолжительность : 14 м.
Задержка видео : 320 мс.
Текст #7
Идентификатор : 189 (0xBD)-39 (0x27)
Формат : RLE
Формат/Информация : Run-length encoding
Режим смешивания : DVD-Video
Продолжительность : 14 м.
Задержка видео : 320 мс.
Текст #8
Идентификатор : 189 (0xBD)-40 (0x28)
Формат : RLE
Формат/Информация : Run-length encoding
Режим смешивания : DVD-Video
Продолжительность : 14 м.
Задержка видео : 320 мс.
Текст #9
Идентификатор : 189 (0xBD)-41 (0x29)
Формат : RLE
Формат/Информация : Run-length encoding
Режим смешивания : DVD-Video
Продолжительность : 14 м.
Задержка видео : 320 мс.
Текст #10
Идентификатор : 189 (0xBD)-42 (0x2A)
Формат : RLE
Формат/Информация : Run-length encoding
Режим смешивания : DVD-Video
Продолжительность : 14 м.
Задержка видео : 320 мс.
Текст #11
Идентификатор : 189 (0xBD)-43 (0x2B)
Формат : RLE
Формат/Информация : Run-length encoding
Режим смешивания : DVD-Video
Продолжительность : 14 м.
Задержка видео : 320 мс.
Текст #12
Идентификатор : 189 (0xBD)-44 (0x2C)
Формат : RLE
Формат/Информация : Run-length encoding
Режим смешивания : DVD-Video
Продолжительность : 14 м.
Задержка видео : 320 мс.
Текст #13
Идентификатор : 189 (0xBD)-32 (0x20)
Формат : RLE
Формат/Информация : Run-length encoding
Режим смешивания : DVD-Video

MediaInfo- Диск 2

Общее
Полное имя: J:\King Lear_2xDVD9\Диск 2\VIDEO_TS\VTS_03_1.VOB
Формат : MPEG-PS
Размер файла : 1024 Мбайт
Продолжительность : 14 м.
Общий поток : 9743 Кбит/сек
Видео
Идентификатор : 224 (0xE0)
Формат : MPEG Video
Версия формата : Version 2
Профиль формата : Main@Main
Параметр BVOP формата : Да
Параметр матрицы формата : Выборочная
Параметр GOP формата : M=2, N=4
Продолжительность : 14 м.
Битрейт : 8109 Кбит/сек
Максимальный битрейт : 8000 Кбит/сек
Ширина : 720 пикселей
Высота : 576 пикселей
Соотношение сторон : 16:9
Частота кадров : 25,000 кадров/сек
Стандарт вещания : PAL
Цветовое пространство : YUV
Субдискретизация насыщенности : 4:2:0
Битовая глубина : 8 бит
Тип развёртки : Чересстрочная
Порядок развёртки : Верхнее поле первое
Метод сжатия : С потерями
Бит/(Пиксели*Кадры) : 0.782
Временной код первого кадра : 00:00:59:20
Оригинал временного кода : Group of pictures header
Размер потока : 852 Мбайт (83%)
Аудио #1
Идентификатор : 189 (0xBD)-128 (0x80)
Формат : AC-3
Формат/Информация : Audio Coding 3
Расширение режима : CM (complete main)
Параметр Endianness формата : Big
Режим смешивания : DVD-Video
Продолжительность : 14 м.
Вид битрейта : Постоянный
Битрейт : 448 Кбит/сек
Каналы : 6 каналов
Расположение каналов : Front: L C R, Side: L R, LFE
Частота : 48,0 КГц
Битовая глубина : 16 бит
Метод сжатия : С потерями
Задержка видео : 80 мс.
Размер потока : 47,1 Мбайт (5%)
Аудио #2
Идентификатор : 189 (0xBD)-129 (0x81)
Формат : AC-3
Формат/Информация : Audio Coding 3
Расширение режима : CM (complete main)
Параметр Endianness формата : Big
Режим смешивания : DVD-Video
Продолжительность : 14 м.
Вид битрейта : Постоянный
Битрейт : 448 Кбит/сек
Каналы : 6 каналов
Расположение каналов : Front: L C R, Side: L R, LFE
Частота : 48,0 КГц
Битовая глубина : 16 бит
Метод сжатия : С потерями
Задержка видео : 80 мс.
Размер потока : 47,1 Мбайт (5%)
Аудио #3
Идентификатор : 189 (0xBD)-130 (0x82)
Формат : AC-3
Формат/Информация : Audio Coding 3
Расширение режима : CM (complete main)
Параметр Endianness формата : Big
Режим смешивания : DVD-Video
Продолжительность : 14 м.
Вид битрейта : Постоянный
Битрейт : 448 Кбит/сек
Каналы : 6 каналов
Расположение каналов : Front: L C R, Side: L R, LFE
Частота : 48,0 КГц
Битовая глубина : 16 бит
Метод сжатия : С потерями
Задержка видео : 80 мс.
Размер потока : 47,1 Мбайт (5%)
Аудио #4
Идентификатор : 189 (0xBD)-131 (0x83)
Формат : AC-3
Формат/Информация : Audio Coding 3
Расширение режима : CM (complete main)
Параметр Endianness формата : Big
Режим смешивания : DVD-Video
Продолжительность : 14 м.
Вид битрейта : Постоянный
Битрейт : 96,0 Кбит/сек
Каналы : 1 канал
Расположение каналов : Front: C
Частота : 48,0 КГц
Битовая глубина : 16 бит
Метод сжатия : С потерями
Задержка видео : 80 мс.
Размер потока : 10,1 Мбайт (1%)
Текст #1
Идентификатор : 189 (0xBD)-33 (0x21)
Формат : RLE
Формат/Информация : Run-length encoding
Режим смешивания : DVD-Video
Продолжительность : 14 м.
Задержка видео : 400 мс.
Текст #2
Идентификатор : 189 (0xBD)-34 (0x22)
Формат : RLE
Формат/Информация : Run-length encoding
Режим смешивания : DVD-Video
Продолжительность : 14 м.
Задержка видео : 400 мс.
Текст #3
Идентификатор : 189 (0xBD)-35 (0x23)
Формат : RLE
Формат/Информация : Run-length encoding
Режим смешивания : DVD-Video
Продолжительность : 14 м.
Задержка видео : 400 мс.
Текст #4
Идентификатор : 189 (0xBD)-36 (0x24)
Формат : RLE
Формат/Информация : Run-length encoding
Режим смешивания : DVD-Video
Продолжительность : 14 м.
Задержка видео : 400 мс.
Текст #5
Идентификатор : 189 (0xBD)-37 (0x25)
Формат : RLE
Формат/Информация : Run-length encoding
Режим смешивания : DVD-Video
Продолжительность : 14 м.
Задержка видео : 400 мс.
Текст #6
Идентификатор : 189 (0xBD)-38 (0x26)
Формат : RLE
Формат/Информация : Run-length encoding
Режим смешивания : DVD-Video
Продолжительность : 14 м.
Задержка видео : 400 мс.
Текст #7
Идентификатор : 189 (0xBD)-39 (0x27)
Формат : RLE
Формат/Информация : Run-length encoding
Режим смешивания : DVD-Video
Продолжительность : 14 м.
Задержка видео : 400 мс.
Текст #8
Идентификатор : 189 (0xBD)-40 (0x28)
Формат : RLE
Формат/Информация : Run-length encoding
Режим смешивания : DVD-Video
Продолжительность : 14 м.
Задержка видео : 400 мс.
Текст #9
Идентификатор : 189 (0xBD)-41 (0x29)
Формат : RLE
Формат/Информация : Run-length encoding
Режим смешивания : DVD-Video
Продолжительность : 14 м.
Задержка видео : 400 мс.
Текст #10
Идентификатор : 189 (0xBD)-42 (0x2A)
Формат : RLE
Формат/Информация : Run-length encoding
Режим смешивания : DVD-Video
Продолжительность : 14 м.
Задержка видео : 400 мс.
Текст #11
Идентификатор : 189 (0xBD)-43 (0x2B)
Формат : RLE
Формат/Информация : Run-length encoding
Режим смешивания : DVD-Video
Продолжительность : 14 м.
Задержка видео : 400 мс.
Текст #12
Идентификатор : 189 (0xBD)-44 (0x2C)
Формат : RLE
Формат/Информация : Run-length encoding
Режим смешивания : DVD-Video
Продолжительность : 14 м.
Задержка видео : 400 мс.
Текст #13
Идентификатор : 189 (0xBD)-32 (0x20)
Формат : RLE
Формат/Информация : Run-length encoding
Режим смешивания : DVD-Video

Скриншоты меню-Диск 1

Скриншоты фильма-Диск 1

Скриншоты доп. материалов-Диск 1

Скриншоты меню-Диск 2

Скриншоты фильма-Диск 2

Скриншоты доп. материалов-Диск 2

Полиграфия

Уважаемые пользователи!Найдите пару минут поблагодарить релизера и высказаться в топике раздачи.Ваше мнение - бальзам для раздающего и пища для ума остальным пользователям.
[Профиль] [ЛС]

Создавать темы 06-Авг-2015 23:40 (спустя 1 год)

Топик был перенесен из форума Фильмы (HD DVD, Blu-ray и BDRemux) в форум Фильмы (DVD 5/9)
sergej644
 
Кто просматривает тему:

Форум Тема Автор Размер
50/50 (Pop) VA - Королевская дискотека. Зажигают все! - 2014, MP3, 320 kbps sergej644 643 MB
Rock (Punk Rock) Король и Шут - Лучшее(2 CD) - 2013 [MP3, tracks, 320 kbps] sergej644 365 MB
Сhanson (Шансон) Виктор Королев - Полная коллекция хитов - 3 - 2015, MP3, 320 kbps Magnat 691 MB
Сhanson (Шансон) Виктор Королёв - Серия «SUPER HITS COLLECTION. 20 лучших песен» - 2012, FLAC (image+.cue), lossless sergej644 775 MB
Биографии и личности 1715: Король-Солнце умер! / La Mort de Louis XIV (1715: The Sun King is Dead !) (Сильви Февле / Sylvie Faiveley) [2015 г., Документально-игровой, история, SATRip] skorpionN 742 MB
Фильмы 2011 года 28 недель спустя / 28 Weeks Later (Хуан Карлос Фреснадильо / Juan Carlos Fresnadillo) [2007, Великобритания, Испания, ужасы, триллер, BDRip-AVC] Dub + DVO (П. Гланц и И. Королева) + Original (eng) +... TorrentFilm 4.11 GB
365 365: Изабелла и Колумб. Королевский посланник / Isabel y Colón: El Legado de un Reino [части 1-3 из 3] (Омар Плейте / Omar Pleite) [2008 г., Документальный, история, биографический, SATRip] skorpionN 1.13 GB
365 365: Мебель Версаля. От Короля-Солнце до Великой французской революции / Le Mobilier de Versailles. Du Roi-Soleil à la Révolution (Фабрис Урлье / Fabrice Hourlier) [2014 г., Документальный, история,... skorpionN 744 MB
Показать сообщения:    

Текущее время: Сегодня 14:58

Часовой пояс: GMT



Вы не можете начинать темы
Вы не можете отвечать на сообщения
Вы не можете редактировать свои сообщения
Вы не можете удалять свои сообщения
Вы не можете голосовать в опросах
Вы не можете прикреплять файлы к сообщениям
Вы не можете скачивать файлы