Король Артур / King Arthur (2004) BDRip 1080p |

 
Автор Сообщение

sergej644 ®

Пол:

Стаж: 4 года 11 месяцев

Сообщений: 6035

Откуда: Soviet Union



Награды: Нет

Торрент-статистика

Создавать темы 20-Фев-2015 15:30

[Цитировать]

Информация о фильме
Название: Король Артур
Оригинальное название: King Arthur
Год выхода: 2004
Жанр: боевик, приключения, военный, история
Режиссер: Антуан Фукуа
В ролях: Клайв Оуэн, Кира Найтли, Мадс Миккельсен, Рэй Уинстон, Стеллан Скарсгард, Тиль Швайгер, Йоан Гриффит, Джоэл Эдгертон, Хью Дэнси, Рэй Стивенсон
О фильме: Фильм — о легендарной исторической личности. В нем большое внимание уделено историческим фактам и политическим событиям, имевшим место в период правления короля Артура. Но картина обещает совместить в себе как реальные исторические события, имевшие место в провинции Британия сразу после распада Великой Римской Империи, так и мифы о подвигах рыцарей короля Артура…

Выпущено: Touchstone Pictures
Продолжительность: 02:21:38
Перевод: Дублированный
Файл
Кодек: x264
Качество: BDRip (источник: Blu-ray Disc)
Видео: 1920x816 (2,35:1), 23.976 fps, 6940 kbps
Аудио #1: AC-3, 6 ch, 448 kbps (Rus)
Аудио #2: AC-3, 6 ch, 640 kbps (Eng)
Субтитры: Русские, Английские
Скачать: сэмплСкриншоты

MI

Общее
Уникальный идентификатор         : 232970086889441520540667249823346350213 (0xAF44681A20DC519AA7AC4900A5F05885)
Полное имя                       : King.Arthur.DC.2004.BDRip.1080p.Rus.Eng.mkv
Формат                           : Matroska
Версия формата                   : Version 2
Размер файла                     : 7,94 Гбайт
Продолжительность                : 2 ч. 21 м.
Общий поток                      : 8027 Кбит/сек
Название фильма                  : Король Артур / King Arthur (2004)
Дата кодирования                 : UTC 2012-02-04 18:10:17
Программа кодирования            : mkvmerge v4.0.0 ('The Stars were mine') сборка от Jun  6 2010 16:18:42
Библиотека кодирования           : libebml v1.0.0 + libmatroska v1.0.0
Видео
Идентификатор                    : 1
Формат                           : AVC
Формат/Информация                : Advanced Video Codec
Профиль формата                  : High@L4.1
Параметр CABAC формата           : Да
Параметр ReFrames формата        : 5 кадров
Идентификатор кодека             : V_MPEG4/ISO/AVC
Продолжительность                : 2 ч. 21 м.
Битрейт                          : 6940 Кбит/сек
Ширина                           : 1920 пикселей
Высота                           : 816 пикселей
Соотношение сторон               : 2,35:1
Частота кадров                   : 23,976 кадра/сек
Цветовое пространство            : YUV
Субдискретизация насыщенности    : 4:2:0
Битовая глубина                  : 8 бит
Тип развёртки                    : Прогрессивная
Бит/(Пиксели*Кадры)              : 0.185
Размер потока                    : 6,71 Гбайт (84%)
Заголовок                        : Release by AlexKa
Библиотека кодирования           : x264 core 120 r2146 bcd41db
Настройки программы              : cabac=1 / ref=5 / deblock=1:-3:-3 / analyse=0x3:0x133 / me=umh / subme=10 / psy=1 / psy_rd=1.00:0.10 / mixed_ref=1 / me_range=32 / chroma_me=1 / trellis=2 / 8x8dct=1 / cqm=0 / deadzone=21,11 / fast_pskip=0 / chroma_qp_offset=-3 / threads=12 / sliced_threads=0 / nr=0 / decimate=0 / interlaced=0 / bluray_compat=0 / constrained_intra=0 / bframes=5 / b_pyramid=2 / b_adapt=2 / b_bias=0 / direct=3 / weightb=1 / open_gop=0 / weightp=2 / keyint=240 / keyint_min=24 / scenecut=40 / intra_refresh=0 / rc_lookahead=60 / rc=2pass / mbtree=1 / bitrate=6940 / ratetol=1.0 / qcomp=0.60 / qpmin=0 / qpmax=69 / qpstep=4 / cplxblur=20.0 / qblur=0.5 / ip_ratio=1.40 / aq=1:1.00
Язык                             : English
Аудио #1
Идентификатор                    : 2
Формат                           : AC-3
Формат/Информация                : Audio Coding 3
Расширение режима                : CM (complete main)
Идентификатор кодека             : A_AC3
Продолжительность                : 2 ч. 21 м.
Вид битрейта                     : Постоянный
Битрейт                          : 448 Кбит/сек
Каналы                           : 6 каналов
Расположение каналов             : Front: L C R, Side: L R, LFE
Частота                          : 48,0 КГц
Битовая глубина                  : 16 бит
Метод сжатия                     : С потерями
Размер потока                    : 454 Мбайт (6%)
Заголовок                        : Rus
Язык                             : Russian
Аудио #2
Идентификатор                    : 3
Формат                           : AC-3
Формат/Информация                : Audio Coding 3
Расширение режима                : CM (complete main)
Идентификатор кодека             : A_AC3
Продолжительность                : 2 ч. 21 м.
Вид битрейта                     : Постоянный
Битрейт                          : 640 Кбит/сек
Каналы                           : 6 каналов
Расположение каналов             : Front: L C R, Side: L R, LFE
Частота                          : 48,0 КГц
Битовая глубина                  : 16 бит
Метод сжатия                     : С потерями
Размер потока                    : 648 Мбайт (8%)
Заголовок                        : Eng
Язык                             : English
Текст #1
Идентификатор                    : 4
Формат                           : UTF-8
Идентификатор кодека             : S_TEXT/UTF8
Идентификатор кодека/Информация  : UTF-8 Plain Text
Заголовок                        : Rus
Язык                             : Russian
Текст #2
Идентификатор                    : 5
Формат                           : UTF-8
Идентификатор кодека             : S_TEXT/UTF8
Идентификатор кодека/Информация  : UTF-8 Plain Text
Заголовок                        : Eng
Язык                             : English
Меню
00:00:00.000                     : :Chapter 01
00:13:21.884                     : :Chapter 02
00:21:39.256                     : :Chapter 03
00:35:14.779                     : :Chapter 04
00:45:03.117                     : :Chapter 05
00:55:30.368                     : :Chapter 06
01:04:39.458                     : :Chapter 07
01:12:11.618                     : :Chapter 08
01:23:48.898                     : :Chapter 09
01:34:06.223                     : :Chapter 10
01:43:32.206                     : :Chapter 11
01:54:06.798                     : :Chapter 12
02:05:32.024                     : :Chapter 13
02:10:33.659                     : :Chapter 14
02:21:38.239                     : :Chapter 15
[Профиль] [ЛС]
Кто просматривает тему:

Форум Тема Автор Размер
50/50 (Pop) VA - Королевская дискотека. Зажигают все! - 2014, MP3, 320 kbps sergej644 643 MB
Rock (Punk Rock) Король и Шут - Лучшее(2 CD) - 2013 [MP3, tracks, 320 kbps] sergej644 365 MB
Сhanson (Шансон) Виктор Королев - Полная коллекция хитов - 3 - 2015, MP3, 320 kbps Magnat 691 MB
Сhanson (Шансон) Виктор Королёв - Серия «SUPER HITS COLLECTION. 20 лучших песен» - 2012, FLAC (image+.cue), lossless sergej644 775 MB
Биографии и личности 1715: Король-Солнце умер! / La Mort de Louis XIV (1715: The Sun King is Dead !) (Сильви Февле / Sylvie Faiveley) [2015 г., Документально-игровой, история, SATRip] skorpionN 742 MB
Фильмы 2011 года 28 недель спустя / 28 Weeks Later (Хуан Карлос Фреснадильо / Juan Carlos Fresnadillo) [2007, Великобритания, Испания, ужасы, триллер, BDRip-AVC] Dub + DVO (П. Гланц и И. Королева) + Original (eng) +... TorrentFilm 4.11 GB
365 365: Изабелла и Колумб. Королевский посланник / Isabel y Colón: El Legado de un Reino [части 1-3 из 3] (Омар Плейте / Omar Pleite) [2008 г., Документальный, история, биографический, SATRip] skorpionN 1.13 GB
365 365: Мебель Версаля. От Короля-Солнце до Великой французской революции / Le Mobilier de Versailles. Du Roi-Soleil à la Révolution (Фабрис Урлье / Fabrice Hourlier) [2014 г., Документальный, история,... skorpionN 744 MB
Показать сообщения:    

Текущее время: Сегодня 11:55

Часовой пояс: GMT



Вы не можете начинать темы
Вы не можете отвечать на сообщения
Вы не можете редактировать свои сообщения
Вы не можете удалять свои сообщения
Вы не можете голосовать в опросах
Вы не можете прикреплять файлы к сообщениям
Вы не можете скачивать файлы