Короли улиц / Street Kings (Дэвид Эйр / David Ayer) [2008, США, триллер, драма, криминал, BDRip] Dub (BD) + MVO (Кравец) + AVO (Андрей Гаврилов) + AVO (Юрий Сербин) + Sub (Rus, Eng) + Original Eng

 
Автор Сообщение

TorrentFilm ®

Пол:

Стаж: 2 года

Сообщений: 7741



Награды: Нет

Торрент-статистика

Создавать темы 05-Сен-2015 00:11

[Цитировать]

Короли улиц / Street Kings
Страна: США
Жанр: триллер, драма, криминал
Год выпуска: 2008
Продолжительность: 01:48:48
Перевод: Профессиональный (дублированный) BD
Перевод 2: Профессиональный (многоголосый закадровый) Кравец
Перевод 3: Авторский (одноголосый закадровый) Андрей Гаврилов
Перевод 4: Авторский (одноголосый закадровый) Юрий Сербин
Cубтитры: русские, английские
Оригинальная аудиодорожка: английский
Режиссер: Дэвид Эйр / David Ayer
В ролях: Киану Ривз (Detective Tom Ludlow), Форест Уитакер (Captain Jack Wander), Хью Лори (Captain James Biggs), Крис Эванс (Detective Paul Diskant), Седрик 'Развлекатель' (Scribble), Джей Мор (Sgt. Mike Clady), Терри Крюс (Detective Terrence Washington), Наоми Харрис (Linda Washington), Коммон (Coates), Джейсон Тэйлор (Grill), Марта Игареда (Grace Garcia), Джон Корбетт (Detective Dante Demille)
Описание: Полицейский из Лос-Анджелеса ни разу в жизни не задумывался над тем, что его может ожидать за гранью собственного уютного мира. Однако со смертью любимой жены в его жизнь входит темная, беспощадная, отчаянная пустота. Ладлоу вынужден действовать, когда его же собственные друзья-соратники обвиняют его в убийстве. Так начинается борьба человека за свое место в мире, который все больше и больше контролируется внешними силами.
Сэмпл: http://multi-up.com/1064990
Автор: BEN-BEN
Релиз:
Качество видео: BDRip (Исходник: kukushka / BDRemux 1080p)
Формат видео: AVI
Видео: 720x304 (2.35:1), 23.976 fps, XviD build 73 ~1969 kbps avg, 0.375 bit/pixel
Аудио: 48 kHz, AC3 Dolby Digital, 3/2 (L,C,R,l,r) + LFE ch, ~448 kbps - BD
Аудио 2: 48 kHz, AC3 Dolby Digital, 3/2 (L,C,R,l,r) + LFE ch, ~448 kbps - Eng
Аудио 3: 48 kHz, AC3 Dolby Digital, 3/2 (L,C,R,l,r) + LFE ch, ~448 kbps - Кравец (отдельно)
Аудио 4: 48 kHz, AC3 Dolby Digital, 3/2 (L,C,R,l,r) + LFE ch, ~448 kbps - Андрей Гаврилов (отдельно)
Аудио 5: 48 kHz, AC3 Dolby Digital, 3/2 (L,C,R,l,r) + LFE ch, ~448 kbps - Юрий Сербин (отдельно)

MediaInfo

Общее
Полное имя : C:\Documents and Settings\User\Рабочий стол\Street Kings.2008.BDRip.XviD.АС3.BEN-BEN\Street Kings.2008.BDRip.XviD.АС3.BEN-BEN.avi
Формат : AVI
Формат/Информация : Audio Video Interleave
Профиль формата : OpenDML
Размер файла : 2,19 Гбайт
Продолжительность : 1 ч. 48 м.
Общий поток : 2883 Кбит/сек
Программа кодирования : VirtualDubMod 1.5.10.2 (build 2540/release)
Библиотека кодирования : VirtualDubMod build 2540/release
Видео
Идентификатор : 0
Формат : MPEG-4 Visual
Профиль формата : Advanced Simple@L5
Параметр BVOP формата : 1
Параметр QPel формата : Нет
Параметр GMC формата : Без точки перехода
Параметр матрицы формата : Выборочная
Идентификатор кодека : XVID
Идентификатор кодека/Подсказка : XviD
Продолжительность : 1 ч. 48 м.
Битрейт : 1969 Кбит/сек
Ширина : 720 пикселей
Высота : 304 пикселя
Соотношение сторон : 2,35:1
Частота кадров : 23,976 кадра/сек
Цветовое пространство : YUV
Субдискретизация насыщенности : 4:2:0
Битовая глубина : 8 бит
Тип развёртки : Прогрессивная
Метод сжатия : С потерями
Бит/(Пиксели*Кадры) : 0.375
Размер потока : 1,50 Гбайт (68%)
Библиотека кодирования : XviD 73
Аудио #1
Идентификатор : 1
Формат : AC-3
Формат/Информация : Audio Coding 3
Расширение режима : CM (complete main)
Параметр Endianness формата : Big
Идентификатор кодека : 2000
Продолжительность : 1 ч. 48 м.
Вид битрейта : Постоянный
Битрейт : 448 Кбит/сек
Каналы : 6 каналов
Расположение каналов : Front: L C R, Side: L R, LFE
Частота : 48,0 КГц
Битовая глубина : 16 бит
Метод сжатия : С потерями
Размер потока : 349 Мбайт (16%)
Выравнивание : Разделение по промежуткам
Продолжительность промежутка : 42 мс. (1,00 видеокадр)
Время предзагрузки промежутка : 500 мс.
Аудио #2
Идентификатор : 2
Формат : AC-3
Формат/Информация : Audio Coding 3
Расширение режима : CM (complete main)
Параметр Endianness формата : Big
Идентификатор кодека : 2000
Продолжительность : 1 ч. 48 м.
Вид битрейта : Постоянный
Битрейт : 448 Кбит/сек
Каналы : 6 каналов
Расположение каналов : Front: L C R, Side: L R, LFE
Частота : 48,0 КГц
Битовая глубина : 16 бит
Метод сжатия : С потерями
Размер потока : 349 Мбайт (16%)
Выравнивание : Разделение по промежуткам
Продолжительность промежутка : 42 мс. (1,00 видеокадр)
Время предзагрузки промежутка : 500 мс.

Скриншоты

СравнениеПереводы одинаковые
http://torrentfilm.net/forum/viewtopic.php?t=2298594 http://screenshotcomparison.com/comparison/141209
http://torrentfilm.net/forum/viewtopic.php?t=1077570 http://screenshotcomparison.com/comparison/141210
http://torrentfilm.net/forum/viewtopic.php?t=2314144 http://screenshotcomparison.com/comparison/141211
http://torrentfilm.net/forum/viewtopic.php?t=1644934 http://screenshotcomparison.com/comparison/141213
Переводы разные
http://torrentfilm.net/forum/viewtopic.php?t=3241451 http://screenshotcomparison.com/comparison/141214
[Профиль] [ЛС]

Создавать темы 12-Июн-2016 08:50 (спустя 9 месяцев 7 дней)

Топик был перенесен из форума Фильмы 2011 года в форум Фильмы 2006-2008 года
Russian Mafia
 
Кто просматривает тему:

Форум Тема Автор Размер
50/50 (Pop) VA - Королевская дискотека. Зажигают все! - 2014, MP3, 320 kbps sergej644 643 MB
Rock (Punk Rock) Король и Шут - Лучшее(2 CD) - 2013 [MP3, tracks, 320 kbps] sergej644 365 MB
Сhanson (Шансон) Виктор Королев - Полная коллекция хитов - 3 - 2015, MP3, 320 kbps Magnat 691 MB
Сhanson (Шансон) Виктор Королёв - Серия «SUPER HITS COLLECTION. 20 лучших песен» - 2012, FLAC (image+.cue), lossless sergej644 775 MB
Биографии и личности 1715: Король-Солнце умер! / La Mort de Louis XIV (1715: The Sun King is Dead !) (Сильви Февле / Sylvie Faiveley) [2015 г., Документально-игровой, история, SATRip] skorpionN 742 MB
Фильмы 2011 года 28 недель спустя / 28 Weeks Later (Хуан Карлос Фреснадильо / Juan Carlos Fresnadillo) [2007, Великобритания, Испания, ужасы, триллер, BDRip-AVC] Dub + DVO (П. Гланц и И. Королева) + Original (eng) +... TorrentFilm 4.11 GB
365 365: Изабелла и Колумб. Королевский посланник / Isabel y Colón: El Legado de un Reino [части 1-3 из 3] (Омар Плейте / Omar Pleite) [2008 г., Документальный, история, биографический, SATRip] skorpionN 1.13 GB
365 365: Мебель Версаля. От Короля-Солнце до Великой французской революции / Le Mobilier de Versailles. Du Roi-Soleil à la Révolution (Фабрис Урлье / Fabrice Hourlier) [2014 г., Документальный, история,... skorpionN 744 MB
Показать сообщения:    

Текущее время: Сегодня 06:07

Часовой пояс: GMT



Вы не можете начинать темы
Вы не можете отвечать на сообщения
Вы не можете редактировать свои сообщения
Вы не можете удалять свои сообщения
Вы не можете голосовать в опросах
Вы не можете прикреплять файлы к сообщениям
Вы не можете скачивать файлы