Королевство / The Kingdom (Питер Берг / Peter Berg) [2007, США, Германия, боевик, триллер, драма, HDTVRip] MVO (1 канал)

 
Автор Сообщение

painkiller ®

Стаж: 2 года 3 месяца

Сообщений: 582



Награды: Нет

Торрент-статистика

Создавать темы 15-Авг-2014 10:16

[Цитировать]

Королевство / The Kingdom
Страна: США, Германия
Жанр: боевик, триллер, драма
Год выпуска: 2007
Продолжительность: 01:40:50
Перевод: Профессиональный (многоголосый закадровый) Компания "AB-Video" по заказу 1 канала
Cубтитры: нет
Оригинальная аудиодорожка: нет
Режиссер: Питер Берг / Peter Berg
В ролях: Джейми Фокс, Крис Купер, Дженнифер Гарнер, Джейсон Бейтман, Ашраф Бархом, Али Сулимэн, Джереми Пивен, Ричард Дженкинс, Тим Макгро, Кайл Чендлер, Фрэнсис Фишер, Дэнни Хьюстон, Келли Окоин
Описание: Драматический боевик на острую нынче тему конфликта на Ближнем Востоке. В этот трудный во всех отношениях регион отправляется команда из четверых профессиональных агентов ФБР, чтобы расследовать теракт, произошедший на американском объекте в этой стране, и найти некого Абу Хамза, предположительно главу террористов. Сразу становится ясно, что миссия будет не из легких. Однако американцы находят общий язык с представителем местной полиции, который будет по возможности оказывать команде помощь в установлении справедливости в этой чужой им стране.
Доп. информация: Рип с канала Первый HD. Из видеоряда удален логотип канала, остались послерекламные вставки с названием фильма. Здесь самая полная картинка, на BD и DVD картинка обрезана до 2.35:1.
Качество видео: HDTVRip
Формат видео: AVI
Видео: MPEG4, XviD, 720x400 (16/9), 25.000 fps, 1 743 Kbps (0.242 bit/pixel)
Аудио: AC-3, 48.0 KHz, 2 ch, 192 Kbps, CBR

MediaInfo

Общее
Полное имя : K:\Королевство.avi
Формат : AVI
Формат/Информация : Audio Video Interleave
Размер файла : 1,37 Гбайт
Продолжительность : 1 ч. 40 м.
Общий поток : 1944 Кбит/сек
Название фильма : Королевство / The Kingdom (2007)
Режиссёр : misha2154
Программа кодирования : VirtualDubMod 1.5.10.2 (build 2540/release)
Библиотека кодирования : VirtualDubMod build 2540/release
Правообладатель : специально для BitTorrent трекер RuTracker.org (ex torrents.ru)
Видео
Идентификатор : 0
Формат : MPEG-4 Visual
Профиль формата : Advanced Simple@L5
Параметр BVOP формата : 2
Параметр QPel формата : Нет
Параметр GMC формата : Без точки перехода
Параметр матрицы формата : Default (MPEG)
Идентификатор кодека : XVID
Идентификатор кодека/Подсказка : XviD
Продолжительность : 1 ч. 40 м.
Битрейт : 1743 Кбит/сек
Ширина : 720 пикселей
Высота : 400 пикселей
Соотношение сторон : 16:9
Частота кадров : 25,000 кадров/сек
Цветовое пространство : YUV
Субдискретизация насыщенности : 4:2:0
Битовая глубина : 8 бит
Тип развёртки : Прогрессивная
Метод сжатия : С потерями
Бит/(Пиксели*Кадры) : 0.242
Размер потока : 1,23 Гбайт (90%)
Библиотека кодирования : XviD 1.1.0 (UTC 2005-11-22)
Аудио
Идентификатор : 1
Формат : AC-3
Формат/Информация : Audio Coding 3
Расширение режима : CM (complete main)
Параметр Endianness формата : Big
Идентификатор кодека : 2000
Продолжительность : 1 ч. 40 м.
Вид битрейта : Постоянный
Битрейт : 192 Кбит/сек
Каналы : 2 канала
Расположение каналов : Front: L R
Частота : 48,0 КГц
Битовая глубина : 16 бит
Метод сжатия : С потерями
Размер потока : 138 Мбайт (10%)
Выравнивание : Разделение по промежуткам
Продолжительность промежутка : 40 мс. (1,00 видеокадр)
Время предзагрузки промежутка : 500 мс.
Заголовок : Профессиональный (многоголосый закадровый) 1 канал

Скриншоты


[Профиль] [ЛС]

Создавать темы 06-Авг-2015 23:11 (спустя 11 месяцев 22 дня)

Топик был перенесен из форума Фильмы до 2014 года в форум Фильмы до 2012 года
sergej644
 
Кто просматривает тему:

Форум Тема Автор Размер
50/50 (Pop) VA - Королевская дискотека. Зажигают все! - 2014, MP3, 320 kbps sergej644 643 MB
Rock (Punk Rock) Король и Шут - Лучшее(2 CD) - 2013 [MP3, tracks, 320 kbps] sergej644 365 MB
Сhanson (Шансон) Виктор Королев - Полная коллекция хитов - 3 - 2015, MP3, 320 kbps Magnat 691 MB
Сhanson (Шансон) Виктор Королёв - Серия «SUPER HITS COLLECTION. 20 лучших песен» - 2012, FLAC (image+.cue), lossless sergej644 775 MB
Биографии и личности 1715: Король-Солнце умер! / La Mort de Louis XIV (1715: The Sun King is Dead !) (Сильви Февле / Sylvie Faiveley) [2015 г., Документально-игровой, история, SATRip] skorpionN 742 MB
Фильмы 2011 года 28 недель спустя / 28 Weeks Later (Хуан Карлос Фреснадильо / Juan Carlos Fresnadillo) [2007, Великобритания, Испания, ужасы, триллер, BDRip-AVC] Dub + DVO (П. Гланц и И. Королева) + Original (eng) +... TorrentFilm 4.11 GB
365 365: Изабелла и Колумб. Королевский посланник / Isabel y Colón: El Legado de un Reino [части 1-3 из 3] (Омар Плейте / Omar Pleite) [2008 г., Документальный, история, биографический, SATRip] skorpionN 1.13 GB
365 365: Мебель Версаля. От Короля-Солнце до Великой французской революции / Le Mobilier de Versailles. Du Roi-Soleil à la Révolution (Фабрис Урлье / Fabrice Hourlier) [2014 г., Документальный, история,... skorpionN 744 MB
Показать сообщения:    

Текущее время: Сегодня 18:00

Часовой пояс: GMT



Вы не можете начинать темы
Вы не можете отвечать на сообщения
Вы не можете редактировать свои сообщения
Вы не можете удалять свои сообщения
Вы не можете голосовать в опросах
Вы не можете прикреплять файлы к сообщениям
Вы не можете скачивать файлы