Королевский бутерброд (Андрей Хржановский) [1985 г., Мультфильм, SATRip]

 
Автор Сообщение

TorrentFilm ®

Пол:

Стаж: 1 год 11 месяцев

Сообщений: 7741



Награды: Нет

Торрент-статистика

Создавать темы 04-Янв-2016 00:01

[Цитировать]

Королевский бутербродГод выпуска: 1985
Страна: СССР
Жанр: Мультфильм
Выпущено: «Союзмультфильм»
Продолжительность: ~ 00:09:55
Без субтитров
Режиссёр: Андрей Хржановский
художник-постановщик Владимир Зуйков
xудожники: О. Орехова, Виктор Чугуевский, Ольга Новоселова, Татьяна Макарова, А. Мальцев, Ф. Олейников
аниматоры: Елена Малашенкова, Анатолий Абаренов, Александр Дорогов, Юрий Батанин, Наталия Богомолова, Виолетта Колесникова, Сергей Аврамов
оператор Кабул Расулов
директор Любовь Бутырина
звукорежиссёр Владимир Кутузов
редактор Раиса Фричинская
монтажёр Маргарита Михеева
Текст читает Аркадий Райкин
Описание:
По мотивам стихотворения Алана Александра Милна «Баллада о королевском бутерброде» в переводе С. Маршака.
Музыка В. Шумова в исполнении рок-группы "Центр" и Валентины Пономарёвой.

«Баллада о королевском бутерброде»

Алан Александр Милн
Баллада о королевском бутерброде
(Перевод С. Маршака)
Король, Его величество,
Просил Её величество,
Чтобы Её величество
Спросила у молочницы:
Нельзя ль доставить масла
На завтрак королю.
Придворная молочница
Сказала: "Разумеется,
Схожу,
Скажу
Корове,
Покуда я не сплю!"
Придворная молочница
Пошла к своей корове
И говорит корове,
Лежащей на полу:
"Велели Их величества
Известное количество
Отборнейшего масла
Доставить к их столу!"
Ленивая корова
Ответила спросонья:
"Скажите Их величествам,
Что нынче очень многие
Двуногие-безрогие
Предпочитают мармелад,
А также пастилу!"
Придворная молочница
Сказала: "Вы подумайте!"
И тут же королеве
Представила доклад:
"Сто раз прошу прощения
За это предложение,
Но если Вы намажете
На тонкий ломтик хлеба
Фруктовый мармелад,
Король, Его величество,
Наверно, будет рад!"
Тотчас же королева
Пошла к Его величеству
И, будто между прочим,
Сказала невпопад:
"Ах да, мой друг, по поводу
Обещанного масла...
Хотите ли попробовать
На завтрак мармелад?"
Король ответил:
"Глупости!"
Король сказал:
"О Боже мой!"
Король вздохнул:
"О Господи!" ─
И снова лёг в кровать.
"Ещё никто, ─ сказал он, ─
Никто меня на свете
Не называл капризным...
Просил я только масла
На завтрак мне подать!"
На это королева
Сказала: "Ну конечно!" ─
И тут же приказала
Молочницу позвать.
Придворная молочница
Сказала: "Ну конечно!" ─
И тут же побежала
В коровий хлев опять.
Придворная корова
Сказала: "В чём же дело?
Я ничего дурного
Сказать Вам не хотела.
Возьмите простокваши,
И молока для каши,
И сливочного масла
Могу Вам тоже дать!"
Придворная молочница
Сказала: "Благодарствуйте!"
И масло на подносе
Послала королю.
Король воскликнул: "Масло!
Отличнейшее масло!
Прекраснейшее масло!
Я так его люблю!
Никто, никто, ─ сказал он
И вылез из кровати, ─
Никто, никто, ─ сказал он,
Спускаясь вниз в халате, ─
Никто, никто, ─ сказал он,
Намылив руки мылом, ─
Никто, никто, ─ сказал он,
Съезжая по перилам, ─
Никто не скажет, будто я
Тиран и сумасброд,
За то, что к чаю я люблю
Хороший бутерброд!"
Качество: SATRip
Формат: AVI
Видео: 720x544 (1.32:1), 25 fps, XviD build 64 ~2387 kbps avg, 0.24 bit/pixel
Аудио: 48 kHz, AC3 Dolby Digital, 2/0 (L,R) ch, ~192 kbps

Подробные технические данные

ОбщееПолное имя : D:\Мульты\Korolevskiy_buterbrod_(SATRip,_no_subs).aviФормат : AVIФормат/Информация : Audio Video InterleaveРазмер файла : 184 МбайтПродолжительность : 9 м. 54 с.Общий поток : 2589 Кбит/секПрограмма кодирования : VirtualDubMod 1.5.10.2 (build 2540/release)Библиотека кодирования : VirtualDubMod build 2540/release
ВидеоИдентификатор : 0Формат : MPEG-4 VisualПрофиль формата : Advanced Simple@L5Параметр BVOP формата : 2Параметр QPel формата : НетПараметр GMC формата : Без точки переходаПараметр матрицы формата : ВыборочнаяИдентификатор кодека : XVIDИдентификатор кодека/Подсказка : XviDПродолжительность : 9 м. 54 с.Битрейт : 2387 Кбит/секШирина : 720 пикселейВысота : 544 пикселяСоотношение сторон : 4:3Частота кадров : 25,000 кадров/секЦветовое пространство : YUVСубдискретизация насыщенности : 4:2:0Битовая глубина : 8 битТип развёртки : ПрогрессивнаяМетод сжатия : С потерямиБит/(Пиксели*Кадры) : 0.244Размер потока : 169 Мбайт (92%)Библиотека кодирования : XviD 64
АудиоИдентификатор : 1Формат : AC-3Формат/Информация : Audio Coding 3Расширение режима : CM (complete main)Идентификатор кодека : 2000Продолжительность : 9 м. 54 с.Вид битрейта : ПостоянныйБитрейт : 192 Кбит/секКаналы : 2 каналаРасположение каналов : Front: L RЧастота : 48,0 КГцБитовая глубина : 16 битМетод сжатия : С потерямиРазмер потока : 13,6 Мбайт (7%)Выравнивание : Разделение по промежуткамПродолжительность промежутка : 40 мс. (1,00 видеокадр)Время предзагрузки промежутка : 500 мс.
Subtitles: Not Present

Скриншоты

-За источник благодарности получает SLuMeP -
-
-Сравнение альтернатив:
SATRip (no subs)DVDRip (no subs) http://screenshotcomparison.com/comparison/47715
MRA DVDRip (hardsub)DVDRip (no subs) http://screenshotcomparison.com/comparison/47717
MRA DVDRip (hardsub)SATRip (no subs) http://screenshotcomparison.com/comparison/47718- Все раздачи
[Профиль] [ЛС]
Кто просматривает тему:

Форум Тема Автор Размер
50/50 (Pop) VA - Королевская дискотека. Зажигают все! - 2014, MP3, 320 kbps sergej644 643 MB
Rock (Punk Rock) Король и Шут - Лучшее(2 CD) - 2013 [MP3, tracks, 320 kbps] sergej644 365 MB
Сhanson (Шансон) Виктор Королев - Полная коллекция хитов - 3 - 2015, MP3, 320 kbps Magnat 691 MB
Сhanson (Шансон) Виктор Королёв - Серия «SUPER HITS COLLECTION. 20 лучших песен» - 2012, FLAC (image+.cue), lossless sergej644 775 MB
Биографии и личности 1715: Король-Солнце умер! / La Mort de Louis XIV (1715: The Sun King is Dead !) (Сильви Февле / Sylvie Faiveley) [2015 г., Документально-игровой, история, SATRip] skorpionN 742 MB
Фильмы 2011 года 28 недель спустя / 28 Weeks Later (Хуан Карлос Фреснадильо / Juan Carlos Fresnadillo) [2007, Великобритания, Испания, ужасы, триллер, BDRip-AVC] Dub + DVO (П. Гланц и И. Королева) + Original (eng) +... TorrentFilm 4.11 GB
365 365: Изабелла и Колумб. Королевский посланник / Isabel y Colón: El Legado de un Reino [части 1-3 из 3] (Омар Плейте / Omar Pleite) [2008 г., Документальный, история, биографический, SATRip] skorpionN 1.13 GB
365 365: Мебель Версаля. От Короля-Солнце до Великой французской революции / Le Mobilier de Versailles. Du Roi-Soleil à la Révolution (Фабрис Урлье / Fabrice Hourlier) [2014 г., Документальный, история,... skorpionN 744 MB
Показать сообщения:    

Текущее время: Сегодня 20:05

Часовой пояс: GMT



Вы не можете начинать темы
Вы не можете отвечать на сообщения
Вы не можете редактировать свои сообщения
Вы не можете удалять свои сообщения
Вы не можете голосовать в опросах
Вы не можете прикреплять файлы к сообщениям
Вы не можете скачивать файлы