Королевский бутерброд (Андрей Хржановский) [1985 г., Мультфильм, DVB-AVC]

 
Автор Сообщение

painkiller ®

Стаж: 2 года 10 месяцев

Сообщений: 582



Награды: Нет

Торрент-статистика

Создавать темы 27-Авг-2014 19:33

[Цитировать]

Королевский бутерброд
Жанр: мультфильм
Год выпуска: 1985
Продолжительность: 00:09:54
Режиссёр: Андрей Хржановский
Описание: В основе мультфильма - известное стихотворение Алана Милна в переводе Самуила Маршака о том, как из-за прихоти капризного короля было взбудоражено все королевство.
Доп. информация: Музыка В. Шумова в исполнении рок-группы "Центр" и Валентины Пономарёвой.

Трансляция спутникового канала: "Звезда"
Качество видео: DVB
Формат видео: MPEG-TS
Видео: MPEG4 Video (H264), 720x576@785x576 (4:3), анаморф, 25 fps, 4400 kbps
Аудио: MPEG Audio, 2 сh, 48 kHz, 192 kbps

MediaInfo

General
ID : 1
Complete name : D:\Королевский бутерброд. (1985)_DVB by SLuMeP.ts
Format : MPEG-TS
File size : 339 MiB
Duration : 9mn 54s
Overall bit rate : 4 787 Kbps
Video
ID : 1371 (0x55B)
Menu ID : 1 (0x1)
Format : AVC
Format/Info : Advanced Video Codec
Format profile : Main@L3.0
Format settings, CABAC : Yes
Format settings, ReFrames : 3 frames
Format settings, GOP : M=4, N=28
Codec ID : 27
Duration : 9mn 54s
Bit rate : 4 357 Kbps
Width : 720 pixels
Height : 576 pixels
Display aspect ratio : 4:3
Frame rate : 25.000 fps
Standard : Component
Color space : YUV
Chroma subsampling : 4:2:0
Bit depth : 8 bits
Scan type : Progressive
Bits/(Pixel*Frame) : 0.420
Stream size : 309 MiB (91%)
Color primaries : BT.470-6 System B, BT.470-6 System G, BT.601-6 625, BT.1358 625, BT.1700 625 PAL, BT.1700 625 SECAM
Transfer characteristics : BT.470-6 System B, BT.470-6 System G
Matrix coefficients : BT.470-6 System B, BT.470-6 System G, BT.601-6 625, BT.1358 625, BT.1700 625 PAL, BT.1700 625 SECAM, IEC 61966-2-4 601
Audio
ID : 1372 (0x55C)
Menu ID : 1 (0x1)
Format : MPEG Audio
Format version : Version 1
Format profile : Layer 2
Codec ID : 3
Duration : 9mn 54s
Bit rate mode : Constant
Bit rate : 192 Kbps
Channel(s) : 2 channels
Sampling rate : 48.0 KHz
Video delay : -40ms
Stream size : 13.6 MiB (4%)
Language : Russian

Скриншоты

[Профиль] [ЛС]
Кто просматривает тему:

Форум Тема Автор Размер
Биографии и личности 1715: Король-Солнце умер! / La Mort de Louis XIV (1715: The Sun King is Dead !) (Сильви Февле / Sylvie Faiveley) [2015 г., Документально-игровой, история, SATRip] skorpionN 742 MB
365 365: Изабелла и Колумб. Королевский посланник / Isabel y Colón: El Legado de un Reino [части 1-3 из 3] (Омар Плейте / Omar Pleite) [2008 г., Документальный, история, биографический, SATRip] skorpionN 1.13 GB
365 365: Мебель Версаля. От Короля-Солнце до Великой французской революции / Le Mobilier de Versailles. Du Roi-Soleil à la Révolution (Фабрис Урлье / Fabrice Hourlier) [2014 г., Документальный, история,... skorpionN 744 MB
BBC BBC: Сказочный замок короля Людвига II / The Fairytale Castles of king Ludwig II (Александр Лейт / Alexander Leigth) [2013 г., Документальный, архитектура, искусство, история, HDTVRip 720p] skorpionN 1.59 GB
Viasat History Viasat History: Шесть королев Генриха VIII / The Six Queens of Henry VIII [сезон 1 серии 1-4 из 4] (Chris Holt) [2016 г., Документальный, игровой, история, SATRip] skorpionN 2.2 GB
Viasat Nature Viasat Nature: Баварское горное королевство / Allgäu - Im Land des Märchenkönigs (Bavaria's Alpine Kingdom) (Жан Хафт / Jan Haft) [2009 г., Документальный, путешествия, природа, SATRip] skorpionN 786 MB
Альтернативная история и наука История о легендарном короле Артуре / King Arthur - The Legend (John Geraint) [2016 г., Документальный, игровой, история, HDTVRip-AVC 720p] skorpionN 1.72 GB
Animal Planet Королева-львица / The Real Lion Queen (Ян Лампен / Jan Lampen) [2013, Документальный, HDTVRip-AVC] reversefile 700 MB
Показать сообщения:    

Текущее время: Сегодня 00:38

Часовой пояс: GMT



Вы не можете начинать темы
Вы не можете отвечать на сообщения
Вы не можете редактировать свои сообщения
Вы не можете удалять свои сообщения
Вы не можете голосовать в опросах
Вы не можете прикреплять файлы к сообщениям
Вы не можете скачивать файлы