Королева / The Queen (Стивен Фрирз / Stephen Frears) [2006, Великобритания, США, Франция, Италия, драма, биография, BDRip] Dub + 2xMVO + Original Eng + subs (Rus, Eng)

 
Автор Сообщение

TorrentFilm ®

Пол:

Стаж: 2 года

Сообщений: 7741



Награды: Нет

Торрент-статистика

Создавать темы 29-Дек-2014 00:15

[Цитировать]

Королева / The Queen- Год выпуска: 2006
Страна: Великобритания, США, Франция, Италия
Жанр: драма, биография
Продолжительность: 01:43:22
Перевод: Профессиональный (полное дублирование)
+ Профессиональный (многоголосый, закадровый) Инис
+ Оригинальная звуковая дорожка
+ Профессиональный (многоголосый, закадровый) (отдельно)
Субтитры: Русские, английские (внешние srt*)-Режиссер: Стивен Фрирз / Stephen Frears
В ролях: Хелен Миррен, Джеймс Кромуэлл, Майкл Шин, Алекс Дженнингс, Сильвия Симс, Хелен МакКрори, Роджер Аллам, Тим МакМуллан, Робин Соанс, Лола Пиплоу
О фильме: Кинотрактовка закулисных взаимоотношений английской королевы Елизаветы II и премьер-министра Тони Блэра, развивающихся на фоне многочисленных проблем, возникших в связи с трагической гибелью принцессы Дианы. Август 1997 года. Любимица Соединенного Королевства принцесса Диана погибла в автокатастрофе. Королева Елизавета II, несмотря на все ожидания британского общества, уединяется в замке Балморал, где пытается осознать весь масштаб постигшей Великобританию утраты.
Однако недавно избранный премьер-министр Тони Блэр понимает, что сложившаяся ситуация может отвернуть простых британцев от престола. Поэтому на его плечи ложится весь груз ответственности по поиску компромисса между глубоко личной трагедией королевского дома и желанием общественности увидеть ее публичные проявления.-Релиз:
Автор: kingsize87
Качество: BDRip (источник: HD-Bits / Blu-ray / 1080p)
Формат: AVI
Видео: 704x384 (1.83:1), 23.976 fps, XviD build 65 ~1926 kbps avg, 0.30 bit/pixel
Аудио #1: 48 kHz, AC3 Dolby Digital, 3/2 (L,C,R,l,r) + LFE ch, ~448.00 kbps avg dub
Аудио #2: 48 kHz, AC3 Dolby Digital, 2/0 (L,R), ~192.00 kbps avg инис
Аудио #3: 48 kHz, AC3 Dolby Digital, 3/2 (L,C,R,l,r) + LFE ch, ~448.00 kbps avg eng
Аудио #4: 48 kHz, AC3 Dolby Digital, 2/0 (L,R), ~192.00 kbps avg mvo (отдельно)
Размер: 2233.65 Mb (1/2 DVD-R)
Скачать: Семпл-

Кадры из фильма


-

Mi


Формат : AVI
Формат/Информация : Audio Video Interleave
Профиль формата : OpenDML
Размер файла : 2,18 Гбайт
Продолжительность : 1 ч. 43 м.
Общий поток : 3021 Кбит/сек
Название фильма : Королева / The Queen (2006) BDRip
Режиссёр : kingsize87
Программа кодирования : VirtualDubMod 1.5.10.2 (build 2540/release)
Правообладатель : HQCLUB
Примечание : 17.12.2014
Видео
Идентификатор : 0
Формат : MPEG-4 Visual
Профиль формата : Advanced Simple@L5
Параметр BVOP формата : 1
Параметр QPel формата : Нет
Параметр GMC формата : Без точки перехода
Параметр матрицы формата : Выборочная
Идентификатор кодека : XVID
Идентификатор кодека/Подсказка : XviD
Продолжительность : 1 ч. 43 м.
Битрейт : 1910 Кбит/сек
Ширина : 704 пикселя
Высота : 384 пикселя
Соотношение сторон : 1,85:1
Частота кадров : 23,976 кадра/сек
Цветовое пространство : YUV
Субдискретизация насыщенности : 4:2:0
Битовая глубина : 8 бит
Тип развёртки : Прогрессивная
Метод сжатия : С потерями
Бит/(Пиксели*Кадры) : 0.295
Размер потока : 1,38 Гбайт (63%)
Библиотека кодирования : XviD 65
Аудио #1
Идентификатор : 1
Формат : AC-3
Формат/Информация : Audio Coding 3
Расширение режима : CM (complete main)
Параметр Endianness формата : Big
Идентификатор кодека : 2000
Продолжительность : 1 ч. 43 м.
Вид битрейта : Постоянный
Битрейт : 448 Кбит/сек
Каналы : 6 каналов
Расположение каналов : Front: L C R, Side: L R, LFE
Частота : 48,0 КГц
Битовая глубина : 16 бит
Метод сжатия : С потерями
Размер потока : 331 Мбайт (15%)
Выравнивание : Разделение по промежуткам
Продолжительность промежутка : 42 мс. (1,00 видеокадр)
Время предзагрузки промежутка : 500 мс.
Аудио #2
Идентификатор : 2
Формат : AC-3
Формат/Информация : Audio Coding 3
Расширение режима : CM (complete main)
Параметр Endianness формата : Big
Идентификатор кодека : 2000
Продолжительность : 1 ч. 43 м.
Вид битрейта : Постоянный
Битрейт : 192 Кбит/сек
Каналы : 2 канала
Расположение каналов : Front: L R
Частота : 48,0 КГц
Битовая глубина : 16 бит
Метод сжатия : С потерями
Размер потока : 142 Мбайт (6%)
Выравнивание : Разделение по промежуткам
Продолжительность промежутка : 42 мс. (1,00 видеокадр)
Время предзагрузки промежутка : 500 мс.
Аудио #3
Идентификатор : 3
Формат : AC-3
Формат/Информация : Audio Coding 3
Расширение режима : CM (complete main)
Параметр Endianness формата : Big
Идентификатор кодека : 2000
Продолжительность : 1 ч. 43 м.
Вид битрейта : Постоянный
Битрейт : 448 Кбит/сек
Каналы : 6 каналов
Расположение каналов : Front: L C R, Side: L R, LFE
Частота : 48,0 КГц
Битовая глубина : 16 бит
Метод сжатия : С потерями
Размер потока : 331 Мбайт (15%)
Выравнивание : Разделение по промежуткам
Продолжительность промежутка : 42 мс. (1,00 видеокадр)
Время предзагрузки промежутка : 500 мс.
-
[Профиль] [ЛС]

Создавать темы 06-Авг-2015 22:53 (спустя 7 месяцев 8 дней)

Топик был перенесен из форума Фильмы до 2014 года в форум Фильмы до 2012 года
sergej644
 
Кто просматривает тему:

Форум Тема Автор Размер
50/50 (Pop) VA - Королевская дискотека. Зажигают все! - 2014, MP3, 320 kbps sergej644 643 MB
Rock (Punk Rock) Король и Шут - Лучшее(2 CD) - 2013 [MP3, tracks, 320 kbps] sergej644 365 MB
Сhanson (Шансон) Виктор Королев - Полная коллекция хитов - 3 - 2015, MP3, 320 kbps Magnat 691 MB
Сhanson (Шансон) Виктор Королёв - Серия «SUPER HITS COLLECTION. 20 лучших песен» - 2012, FLAC (image+.cue), lossless sergej644 775 MB
Биографии и личности 1715: Король-Солнце умер! / La Mort de Louis XIV (1715: The Sun King is Dead !) (Сильви Февле / Sylvie Faiveley) [2015 г., Документально-игровой, история, SATRip] skorpionN 742 MB
Фильмы 2011 года 28 недель спустя / 28 Weeks Later (Хуан Карлос Фреснадильо / Juan Carlos Fresnadillo) [2007, Великобритания, Испания, ужасы, триллер, BDRip-AVC] Dub + DVO (П. Гланц и И. Королева) + Original (eng) +... TorrentFilm 4.11 GB
365 365: Изабелла и Колумб. Королевский посланник / Isabel y Colón: El Legado de un Reino [части 1-3 из 3] (Омар Плейте / Omar Pleite) [2008 г., Документальный, история, биографический, SATRip] skorpionN 1.13 GB
365 365: Мебель Версаля. От Короля-Солнце до Великой французской революции / Le Mobilier de Versailles. Du Roi-Soleil à la Révolution (Фабрис Урлье / Fabrice Hourlier) [2014 г., Документальный, история,... skorpionN 744 MB
Показать сообщения:    

Текущее время: Сегодня 20:11

Часовой пояс: GMT



Вы не можете начинать темы
Вы не можете отвечать на сообщения
Вы не можете редактировать свои сообщения
Вы не можете удалять свои сообщения
Вы не можете голосовать в опросах
Вы не можете прикреплять файлы к сообщениям
Вы не можете скачивать файлы