Королева-львица / The Real Lion Queen (Ян Лампен / Jan Lampen) [2013, Документальный, HDTVRip]

 
Автор Сообщение

reversefile ®

Пол:

Стаж: 4 года 11 месяцев

Сообщений: 842

Откуда: ReverseFile.org



Награды: Нет

Торрент-статистика

Создавать темы 11-Авг-2014 06:20

[Цитировать]

Королева-львица
The Real Lion Queen
- Год выпуска: 2013
Страна: США
Жанр: Документальный
Продолжительность: 00:43:55
Перевод: Профессиональный (дублированный) Михаил Тихонов / АРК·ТВ
Интервью и комментарии - Студийный (одноголосый закадровый)
Русские субтитры: нет-Режиссер: Ян Лампен / Jan Lampen
Описание: Всего за 50 лет охотники уничтожили всю популяцию львов в долине Лиува в Замбии. Но выяснилось, что одна львица выжила. Неужели есть шанс всё исправить?-Автор рипа: Leo.pard
Исходник: HDTV 1080i-Kачество: HDTVRip
Формат: AVI
Видео: XviD, 720x400 (16:9), 1834 Kbps, 25 fps
Аудио: AC3, 384 Kbps, 48 KHz, 6 channels
Сэмпл: http://multi-up.com/971449

MediaInfo

General
Complete name : D:\Koroleva-lvica.2013.HDTVRip.avi
Format : AVI
Format/Info : Audio Video Interleave
File size : 700 MiB
Duration : 43mn 55s
Overall bit rate : 2 228 Kbps
Writing application : VirtualDubMod 1.5.10.3 | www.virtualdub-fr.org || (build 2550/release)
Writing library : VirtualDubMod build 2550/release
Video
ID : 0
Format : MPEG-4 Visual
Format profile : Advanced Simple@L5
Format settings, BVOP : 1
Format settings, QPel : No
Format settings, GMC : No warppoints
Format settings, Matrix : Custom
Codec ID : XVID
Codec ID/Hint : XviD
Duration : 43mn 55s
Bit rate : 1 834 Kbps
Width : 720 pixels
Height : 400 pixels
Display aspect ratio : 16:9
Frame rate : 25.000 fps
Color space : YUV
Chroma subsampling : 4:2:0
Bit depth : 8 bits
Scan type : Progressive
Compression mode : Lossy
Bits/(Pixel*Frame) : 0.255
Stream size : 576 MiB (82%)
Writing library : XviD 73
Audio
ID : 1
Format : AC-3
Format/Info : Audio Coding 3
Mode extension : CM (complete main)
Format settings, Endianness : Big
Codec ID : 2000
Duration : 43mn 55s
Bit rate mode : Constant
Bit rate : 384 Kbps
Channel(s) : 6 channels
Channel positions : Front: L C R, Side: L R, LFE
Sampling rate : 48.0 KHz
Bit depth : 16 bits
Compression mode : Lossy
Stream size : 121 MiB (17%)
Alignment : Split accross interleaves
Interleave, duration : 40 ms (1.00 video frame)
Interleave, preload duration : 500 ms

Скриншоты


--
[Профиль] [ЛС]
Кто просматривает тему:

Форум Тема Автор Размер
Биографии и личности 1715: Король-Солнце умер! / La Mort de Louis XIV (1715: The Sun King is Dead !) (Сильви Февле / Sylvie Faiveley) [2015 г., Документально-игровой, история, SATRip] skorpionN 742 MB
365 365: Изабелла и Колумб. Королевский посланник / Isabel y Colón: El Legado de un Reino [части 1-3 из 3] (Омар Плейте / Omar Pleite) [2008 г., Документальный, история, биографический, SATRip] skorpionN 1.13 GB
365 365: Мебель Версаля. От Короля-Солнце до Великой французской революции / Le Mobilier de Versailles. Du Roi-Soleil à la Révolution (Фабрис Урлье / Fabrice Hourlier) [2014 г., Документальный, история,... skorpionN 744 MB
Альтернативная история и наука История о легендарном короле Артуре / King Arthur - The Legend (John Geraint) [2016 г., Документальный, игровой, история, HDTVRip-AVC 720p] skorpionN 1.72 GB
Фильмы 2017 года Король / Deo king (2017) WEBRip | L BOSS 1.42 GB
Отечественные cериалы Красная королева [01-12 из 12] (2015) HDTVRip от GeneralFilm Russian Mafia 8.78 GB
Зарубежное кино (CAMRip, Telesynch, SCR) Меч короля Артура / King Arthur: Legend of the Sword (2017) CAMRip | D BOSS 697 MB
Зарубежное кино (CAMRip, Telesynch, SCR) Меч короля Артура / King Arthur: Legend of the Sword (2017) TS | D BOSS 2.05 GB
Показать сообщения:    

Текущее время: Сегодня 19:23

Часовой пояс: GMT



Вы не можете начинать темы
Вы не можете отвечать на сообщения
Вы не можете редактировать свои сообщения
Вы не можете удалять свои сообщения
Вы не можете голосовать в опросах
Вы не можете прикреплять файлы к сообщениям
Вы не можете скачивать файлы