Королева бензоколонки (Николай Литус, Алексей Мишурин) [1962, СССР, Комедия, HDTV 1080i]

 
Автор Сообщение

painkiller ®

Стаж: 2 года 10 месяцев

Сообщений: 582



Награды: Нет

Торрент-статистика

Создавать темы 15-Авг-2014 10:19

[Цитировать]

Королева бензоколонки
Страна: СССР
Студия: Киевская киностудия
Жанр: Комедия
Год выпуска: 1962
Продолжительность: 1:12:47
Перевод: Не требуется
Cубтитры: нет
Режиссер: Николай Литус, Алексей Мишурин
В ролях: Надежда Румянцева
Андрей Сова
Алексей Кожевников
Нонна Копержинская
Юрий Белов
Владимир Белокуров
Сергей Блинников
Виктор Мягкий
Евгения Опалова
Виктор Халатов
Описание: Мечта очаровательной девушки Людмилы Добрыйвечер — танцевать в балете на льду. Но… она не проходит по конкурсу, и ей приходится искать работу. После многих забавных приключений, она устраивается заправщицей на бензоколонку. Однако приключения на этом не заканчиваются…
Доп. информация: Реставрация от Первого канала.

Тип релиза: HDTV 1080i
Контейнер: TS
Видео: AVC/H.264, 1920x1080 (16:9), 9825 Кбит/сек, 25.000 fps
Аудио: Mp2, 48000 Hz, 192 Кбит/сек, 2 ch

MediaInfo

General
ID : 0 (0x0)
Complete name : Королева бензоколонки.ts
Format : MPEG-TS
File size : 5.36 GiB
Duration : 1h 12mn
Overall bit rate mode : Variable
Overall bit rate : 10.5 Mbps
Video
ID : 305 (0x131)
Menu ID : 20105 (0x4E89)
Format : AVC
Format/Info : Advanced Video Codec
Format profile : High@L4.0
Format settings, CABAC : Yes
Format settings, ReFrames : 3 frames
Format settings, GOP : M=4, N=28
Codec ID : 27
Duration : 1h 12mn
Bit rate : 9 825 Kbps
Width : 1 920 pixels
Height : 1 080 pixels
Display aspect ratio : 16:9
Frame rate : 25.000 fps
Standard : Component
Color space : YUV
Chroma subsampling : 4:2:0
Bit depth : 8 bits
Scan type : Interlaced
Scan order : Top Field First
Bits/(Pixel*Frame) : 0.190
Stream size : 5.00 GiB (93%)
Color primaries : BT.709
Transfer characteristics : BT.709
Matrix coefficients : BT.709
Audio
ID : 405 (0x195)
Menu ID : 20105 (0x4E89)
Format : MPEG Audio
Format version : Version 1
Format profile : Layer 2
Codec ID : 4
Duration : 1h 12mn
Bit rate mode : Constant
Bit rate : 192 Kbps
Channel count : 2 channels
Sampling rate : 48.0 KHz
Compression mode : Lossy
Delay relative to video : 108ms
Stream size : 100.0 MiB (2%)
Language : Russian
Language, more info : Clean effects

Скриншоты

[Профиль] [ЛС]
Кто просматривает тему:

Форум Тема Автор Размер
365 365: Изабелла и Колумб. Королевский посланник / Isabel y Colón: El Legado de un Reino [части 1-3 из 3] (Омар Плейте / Omar Pleite) [2008 г., Документальный, история, биографический, SATRip] skorpionN 1.13 GB
365 365: Мебель Версаля. От Короля-Солнце до Великой французской революции / Le Mobilier de Versailles. Du Roi-Soleil à la Révolution (Фабрис Урлье / Fabrice Hourlier) [2014 г., Документальный, история,... skorpionN 744 MB
Альтернативная история и наука История о легендарном короле Артуре / King Arthur - The Legend (John Geraint) [2016 г., Документальный, игровой, история, HDTVRip-AVC 720p] skorpionN 1.72 GB
Фильмы 2017 года Король / Deo king (2017) WEBRip | L BOSS 1.42 GB
Отечественные cериалы Красная королева [01-12 из 12] (2015) HDTVRip от GeneralFilm Russian Mafia 8.78 GB
Зарубежное кино (CAMRip, Telesynch, SCR) Меч короля Артура / King Arthur: Legend of the Sword (2017) CAMRip | D BOSS 697 MB
Зарубежное кино (CAMRip, Telesynch, SCR) Меч короля Артура / King Arthur: Legend of the Sword (2017) TS | D BOSS 2.05 GB
Фильмы 2017 года Меч короля Артура / King Arthur: Legend of the Sword (2017) WEBRip | Звук с TS BOSS 2.05 GB
Показать сообщения:    

Текущее время: Сегодня 01:55

Часовой пояс: GMT



Вы не можете начинать темы
Вы не можете отвечать на сообщения
Вы не можете редактировать свои сообщения
Вы не можете удалять свои сообщения
Вы не можете голосовать в опросах
Вы не можете прикреплять файлы к сообщениям
Вы не можете скачивать файлы