Королева бензоколонки (1962) HDTV [1080i]

 
Автор Сообщение

sergej644 ®

Пол:

Стаж: 4 года 11 месяцев

Сообщений: 6039

Откуда: Soviet Union



Награды: Нет

Торрент-статистика

Создавать темы 24-Июл-2014 20:07

[Цитировать]

-Королева бензоколонки (1962) HDTV- Год выпуска: 1962
Производство: Россия
Жанр: Комедия
Перевод: Оригинал
Режиссер: Николай Литус, Алексей Мишурин
Актеры: Надежда Румянцева Андрей Сова Алексей Кожевников Нонна Копержинская Юрий Белов Владимир Белокуров Сергей Блинников Виктор Мягкий Евгения Опалова Виктор Халатов
Описание фильма:
Мечта очаровательной девушки Людмилы Добрыйвечер — танцевать в балете на льду. Но… она не проходит по конкурсу, и ей приходится искать работу. После многих забавных приключений, она устраивается заправщицей на бензоколонку. Однако приключения на этом не заканчиваются…

Продолжительность: 01:12:47
Качество видео: HDTV 1080i
Видеокодек: MPEG-4 AVC/H.264
Битрейт видео: ~9825 kb/s
Размер кадра: 1920x1080
Аудиокодек: MP2
Битрейт аудио: 192 kb/s VBR
Скриншоты:

MediaInfo

General
ID : 0 (0x0)
Complete name : Королева бензоколонки.ts
Format : MPEG-TS
File size : 5.36 GiB
Duration : 1h 12mn
Overall bit rate mode : Variable
Overall bit rate : 10.5 Mbps
Video
ID : 305 (0x131)
Menu ID : 20105 (0x4E89)
Format : AVC
Format/Info : Advanced Video Codec
Format profile : [url=mailto:High@L4.0]High@L4.0[/url]
Format settings, CABAC : Yes
Format settings, ReFrames : 3 frames
Format settings, GOP : M=4, N=28
Codec ID : 27
Duration : 1h 12mn
Bit rate : 9 825 Kbps
Width : 1 920 pixels
Height : 1 080 pixels
Display aspect ratio : 16:9
Frame rate : 25.000 fps
Standard : Component
Color space : YUV
Chroma subsampling : 4:2:0
Bit depth : 8 bits
Scan type : Interlaced
Scan order : Top Field First
Bits/(Pixel*Frame) : 0.190
Stream size : 5.00 GiB (93%)
Color primaries : BT.709
Transfer characteristics : BT.709
Matrix coefficients : BT.709
Audio
ID : 405 (0x195)
Menu ID : 20105 (0x4E89)
Format : MPEG Audio
Format version : Version 1
Format profile : Layer 2
Codec ID : 4
Duration : 1h 12mn
Bit rate mode : Constant
Bit rate : 192 Kbps
Channel count : 2 channels
Sampling rate : 48.0 KHz
Compression mode : Lossy
Delay relative to video : 108ms
Stream size : 100.0 MiB (2%)
Language : Russian
Language, more info : Clean effects
Время раздачи: 12:00 до 24:00
[Профиль] [ЛС]

Создавать темы 06-Авг-2015 22:05 (спустя 1 год)

Топик был перенесен из форума Кино СССР в форум Фильмы (HD Rips | 720p, 1080p)
sergej644
 
Кто просматривает тему:

Форум Тема Автор Размер
50/50 (Pop) VA - Королевская дискотека. Зажигают все! - 2014, MP3, 320 kbps sergej644 643 MB
Rock (Punk Rock) Король и Шут - Лучшее(2 CD) - 2013 [MP3, tracks, 320 kbps] sergej644 365 MB
Сhanson (Шансон) Виктор Королев - Полная коллекция хитов - 3 - 2015, MP3, 320 kbps Magnat 691 MB
Сhanson (Шансон) Виктор Королёв - Серия «SUPER HITS COLLECTION. 20 лучших песен» - 2012, FLAC (image+.cue), lossless sergej644 775 MB
Биографии и личности 1715: Король-Солнце умер! / La Mort de Louis XIV (1715: The Sun King is Dead !) (Сильви Февле / Sylvie Faiveley) [2015 г., Документально-игровой, история, SATRip] skorpionN 742 MB
Фильмы 2011 года 28 недель спустя / 28 Weeks Later (Хуан Карлос Фреснадильо / Juan Carlos Fresnadillo) [2007, Великобритания, Испания, ужасы, триллер, BDRip-AVC] Dub + DVO (П. Гланц и И. Королева) + Original (eng) +... TorrentFilm 4.11 GB
365 365: Изабелла и Колумб. Королевский посланник / Isabel y Colón: El Legado de un Reino [части 1-3 из 3] (Омар Плейте / Omar Pleite) [2008 г., Документальный, история, биографический, SATRip] skorpionN 1.13 GB
365 365: Мебель Версаля. От Короля-Солнце до Великой французской революции / Le Mobilier de Versailles. Du Roi-Soleil à la Révolution (Фабрис Урлье / Fabrice Hourlier) [2014 г., Документальный, история,... skorpionN 744 MB
Показать сообщения:    

Текущее время: Сегодня 16:35

Часовой пояс: GMT



Вы не можете начинать темы
Вы не можете отвечать на сообщения
Вы не можете редактировать свои сообщения
Вы не можете удалять свои сообщения
Вы не можете голосовать в опросах
Вы не можете прикреплять файлы к сообщениям
Вы не можете скачивать файлы