Корабль (2015) SATRip (сезон 2, серии 1-26 из 26)

 
Автор Сообщение

достали все ®

Пол:

Стаж: 2 года 3 месяца

Сообщений: 6778



Награды: 12 (Подробнее)

Mega Releaser 2 (Количество: 1) Top Releaser 2 (Количество: 1) Mega Seeder 2 (Количество: 1)
Торрент-статистика

Создавать темы 01-Май-2015 10:33

[Цитировать]

-Корабль (2015) SATRip (сезон 2)- Производство: Россия / СТС "Yellow, Black and White"
Жанр: фантастика, приключения, мелодрама
Режиссер: Марк Горобец
Актеры: Дмитрий Певцов, Илья Любимов, Юлия Агафонова, Агриппина Стеклова, Владимир Виноградов, Ингрид Олеринская, Матвей Зубалевич, Сергей Друзьяк, Александр Пугачёв (II), Илья Иосифов, Ярослава Базаева, Дмитрий Горевой, Ирина Антоненко, Мария Малиновская, Роман Курцын, Руслан Садковский, Вячеслав Бондарчук, Анастасия Сорокина, Фёдор Сухов, Дарья Храмцова и др.
Описание:
Что может быть лучше путешествия на настоящем паруснике? Бескрайнее море, солнце, романтика, будет, о чем рассказать друзьям. На это рассчитывали двадцать курсантов, поднявшись на борт учебного парусного судна «Надежда».
Но беззаботный отдых длился недолго. Взрыв адронного коллайдера приводит к глобальной катастрофе, в результате которой все материки ушли под воду. Возможно, единственными выжившими людьми на планете оказались пассажиры «Надежды». Корабль становится их единственным домом. Правила жизни меняются. Никто не знает, что будет завтра.

Дата российской премьеры: 23 марта 2015
Качество видео: SATRip
Продолжительность: ~00:45:00 серия
Видеокодек: XviD
Битрейт видео: ~1800 kbps
Размер кадра: 720x368
Аудиокодек: МР3, 2 ch
Битрейт аудио: 128 kbps

MediaInfo

Общее
Полное имя                               : D:\корабль 2 сезон\Korabl.2.01.SATRip.avi
Формат                                   : AVI
Формат/Информация                        : Audio Video Interleave
Размер файла                             : 655 Мбайт
Продолжительность                        : 47 м.
Общий поток                              : 1938 Кбит/сек
Программа кодирования                    : VirtualDubMod 1.5.10.3 | [url=http://www.virtualdub-fr.org]www.virtualdub-fr.org[/url] || (build 2550/release)
Библиотека кодирования                   : VirtualDubMod build 2550/release
Видео
Идентификатор                            : 0
Формат                                   : MPEG-4 Visual
Профиль формата                          : Advanced Simple@L5
Параметр BVOP формата                    : 2
Параметр QPel формата                    : Нет
Параметр GMC формата                     : Без точки перехода
Параметр матрицы формата                 : Default (H.263)
Идентификатор кодека                     : XVID
Идентификатор кодека/Подсказка           : XviD
Продолжительность                        : 47 м.
Битрейт                                  : 1800 Кбит/сек
Ширина                                   : 720 пикселей
Высота                                   : 368 пикселей
Соотношение сторон                       : 1,957
Частота кадров                           : 25,000 кадров/сек
Цветовое пространство                    : YUV
Субдискретизация насыщенности            : 4:2:0
Битовая глубина                          : 8 бит
Тип развёртки                            : Прогрессивная
Метод сжатия                             : С потерями
Бит/(Пиксели*Кадры)                      : 0.272
Размер потока                            : 608 Мбайт (93%)
Библиотека кодирования                   : XviD 1.2.1 (UTC 2008-12-04)
Аудио
Идентификатор                            : 1
Формат                                   : MPEG Audio
Версия формата                           : Version 1
Профиль формата                          : Layer 3
Режим                                    : Joint stereo
Идентификатор кодека                     : 55
Идентификатор кодека/Подсказка           : MP3
Продолжительность                        : 47 м.
Вид битрейта                             : Постоянный
Битрейт                                  : 128 Кбит/сек
Каналы                                   : 2 канала
Частота                                  : 48,0 КГц
Метод сжатия                             : С потерями
Размер потока                            : 43,2 Мбайт (7%)
Выравнивание                             : Соединение по промежуткам
Продолжительность промежутка             : 40  мс. (1,00 видеокадр)
Время предзагрузки промежутка            : 504  мс.
Библиотека кодирования                   : LAME3.99r
Настройки программы                      : -m j -V 4 -q 9 -lowpass 17 -b 128
Скриншоты:
[Профиль] [ЛС]
Кто просматривает тему:

Показать сообщения:    

Текущее время: Сегодня 14:15

Часовой пояс: GMT



Вы не можете начинать темы
Вы не можете отвечать на сообщения
Вы не можете редактировать свои сообщения
Вы не можете удалять свои сообщения
Вы не можете голосовать в опросах
Вы не можете прикреплять файлы к сообщениям
Вы не можете скачивать файлы