Корабль / Ковчег / El Barco [S01-03] (2011-2013) WEB-DL-AVC 720p l Axn Sci Fi

 
Автор Сообщение

Белочка ®

Пол:

Стаж: 5 лет 1 месяц

Сообщений: 2089



Награды: 1 (Подробнее)

Girls (Количество: 1)
Торрент-статистика

Создавать темы 14-Ноя-2014 23:41

[Цитировать]

Год выпуска: 2011-2013
Страна: Испания
Жанр: фантастика, драма, приключения
Продолжительность: 43~01:17:59
Сезоны / серии: 1-43 из 43 / 3 сезона
Перевод: Профессиональный (многоголосый закадровый) (Axn Sci Fi)-В ролях: Ирена Монтала, Марио Касас, Марина Салас, Эктор Альтерио, Иван Массаге, Альба Рибас, Давид Сеихо, Хуан Пабло Шук, Даниэль Ортис, Хуан Хосе Артеро, Луис Кальехо, Бернабе Фернандес, Хавьер Эрнандез, Патриция Арбуэс, Жизелль Кальдерон, Хан Корнет, Альберто Джо Ли, Гэбриел Делгадо, Нюс Санс, Бланка Суарес
Режиссёры: Фернандо Гонзалез Молина, Дэвид Молина, Сандра Гальего, Хесус Кольменар-Описание: Испанский фантастический сериал «Ковчег» после выхода первого сезона взорвал национальный эфир, и спустя считанные месяцы вышел на международный уровень. Отличный сюжет, прекрасный состав (одну из главных ролей сыграл кумир молодежи Марио Касас из дилогии «Три метра над уровнем неба») и достойное исполнение принесло сериалу «Ковчег» лестные сравнения с культовым «Остаться в живых».
Прекрасный белоснежный корабль под романтическим названием «Полярная звезда» отправляется в двухмесячное плавание, которое затягивается на неопределенное время. На его борту находятся совершенно разные люди, связанные друг с другом, помимо общей беды, многочисленными тайнами, заговорами, неприязнью и, конечно, любовью. Кто-то попал сюда случайно, кто-то нарочно, кто-то стал жертвой обстоятельств, а кто-то приложил руку к причине мировой катастрофы. Череда загадочных событий, сдобренная несколькими романтическими линиями, а также трогательными, печальными и смешными моментами гарантированно заинтересует даже самого искушенного зрителя.-

Тех. Данные 1 Сезона (AVC)

Качество: WEBDL - AVC
Формат: MPEG4
Видео кодек: AVC
Аудио кодек: AAC
Видео: MPEG4 Video (H264), 720x396, 25fps, 1683kbps
Аудио: AAC, 48000Hz, stereo, 116kbps
MediaInfo
Format : MPEG-4
Format profile : QuickTime
Codec ID : qt
File size : 1 007 MiB
Duration : 1h 17mn
Overall bit rate : 1 806 Kbps
Writing application : Lavf56.1.100
Video
ID : 1
Format : AVC
Format/Info : Advanced Video Codec
Format profile : Main@L3.0
Format settings, CABAC : Yes
Format settings, ReFrames : 3 frames
Codec ID : avc1
Codec ID/Info : Advanced Video Coding
Duration : 1h 17mn
Bit rate : 1 684 Kbps
Width : 720 pixels
Height : 396 pixels
Display aspect ratio : 16:9
Frame rate mode : Constant
Frame rate : 25.000 fps
Color space : YUV
Chroma subsampling : 4:2:0
Bit depth : 8 bits
Scan type : Progressive
Bits/(Pixel*Frame) : 0.236
Stream size : 939 MiB (93%)
Language : 32
Audio
ID : 2
Format : AAC
Format/Info : Advanced Audio Codec
Format profile : LC
Codec ID : 40
Duration : 1h 17mn
Bit rate mode : Constant
Bit rate : 116 Kbps
Channel(s) : 2 channels
Channel positions : Front: L R
Sampling rate : 48.0 KHz
Compression mode : Lossy
Stream size : 64.7 MiB (6%)
Language : 32

Тех. Данные 2 Сезона (720p)

Качество: WEBDL - 720p
Формат: MPEG4
Видео кодек: AVC
Аудио кодек: AAC
Видео: MPEG4 Video (H264), 1078x576, 25fps, 2487kbps
Аудио: AAC, 48000Hz, stereo, 125kbps
MediaInfo
Format : MPEG-4
Format profile : QuickTime
Codec ID : qt
File size : 1.57 GiB
Duration : 1h 25mn
Overall bit rate : 2 619 Kbps
Writing application : Lavf56.1.100
Video
ID : 1
Format : AVC
Format/Info : Advanced Video Codec
Format profile : High@L4.0
Format settings, CABAC : Yes
Format settings, ReFrames : 3 frames
Codec ID : avc1
Codec ID/Info : Advanced Video Coding
Duration : 1h 25mn
Bit rate : 2 500 Kbps
Width : 1 078 pixels
Height : 576 pixels
Display aspect ratio : 1.85:1
Frame rate mode : Variable
Frame rate : 25.000 fps
Minimum frame rate : 22.735 fps
Maximum frame rate : 25.000 fps
Color space : YUV
Chroma subsampling : 4:2:0
Bit depth : 8 bits
Scan type : Progressive
Bits/(Pixel*Frame) : 0.161
Stream size : 1.49 GiB (95%)
Writing library : x264 core 133
Encoding settings : cabac=1 / ref=4 / deblock=1:0:0 / analyse=0x3:0x133 / me=umh / subme=9 / psy=1 / psy_rd=1.00:0.00 / mixed_ref=1 / me_range=24 / chroma_me=1 / trellis=2 / 8x8dct=1 / cqm=0 / deadzone=21,11 / fast_pskip=1 / chroma_qp_offset=-2 / threads=2 / lookahead_threads=1 / sliced_threads=0 / nr=0 / decimate=1 / interlaced=0 / bluray_compat=0 / constrained_intra=0 / bframes=9 / b_pyramid=1 / b_adapt=2 / b_bias=0 / direct=3 / weightb=1 / open_gop=0 / weightp=2 / keyint=100 / keyint_min=10 / scenecut=40 / intra_refresh=0 / rc_lookahead=100 / rc=2pass / mbtree=1 / bitrate=2500 / ratetol=1.0 / qcomp=0.60 / qpmin=0 / qpmax=69 / qpstep=4 / cplxblur=20.0 / qblur=0.5 / vbv_maxrate=3250 / vbv_bufsize=3750 / nal_hrd=none / ip_ratio=1.40 / aq=1:1.00
Language : 32
Audio
ID : 2
Format : AAC
Format/Info : Advanced Audio Codec
Format profile : LC
Codec ID : 40
Duration : 1h 25mn
Bit rate mode : Constant
Bit rate : 126 Kbps
Channel(s) : 2 channels
Channel positions : Front: L R
Sampling rate : 48.0 KHz
Compression mode : Lossy
Stream size : 77.2 MiB (5%)
Language : 32

Тех. Данные 3 Сезона (720p)

Качество: WEBDL - 720p
Формат: MPEG4
Видео кодек: AVC
Аудио кодек: AAC
Видео: MPEG4 Video (H264), 1280x720, 25fps, 2494kbps
Аудио: AAC, 48000Hz, stereo, 111kbps
MediaInfo
Format : MPEG-4
Format profile : QuickTime
Codec ID : qt
File size : 1.72 GiB
Duration : 1h 34mn
Overall bit rate : 2 613 Kbps
Writing application : Lavf56.1.100
Video
ID : 1
Format : AVC
Format/Info : Advanced Video Codec
Format profile : High@L4.0
Format settings, CABAC : Yes
Format settings, ReFrames : 3 frames
Codec ID : avc1
Codec ID/Info : Advanced Video Coding
Duration : 1h 34mn
Duration_FirstFrame : 3ms
Bit rate : 2 500 Kbps
Width : 1 280 pixels
Height : 720 pixels
Display aspect ratio : 16:9
Frame rate mode : Variable
Frame rate : 25.000 fps
Minimum frame rate : 24.151 fps
Maximum frame rate : 25.000 fps
Color space : YUV
Chroma subsampling : 4:2:0
Bit depth : 8 bits
Scan type : Progressive
Bits/(Pixel*Frame) : 0.109
Stream size : 1.64 GiB (96%)
Writing library : x264 core 133
Encoding settings : cabac=1 / ref=4 / deblock=1:0:0 / analyse=0x3:0x133 / me=umh / subme=9 / psy=1 / psy_rd=1.00:0.00 / mixed_ref=1 / me_range=24 / chroma_me=1 / trellis=2 / 8x8dct=1 / cqm=0 / deadzone=21,11 / fast_pskip=1 / chroma_qp_offset=-2 / threads=2 / lookahead_threads=1 / sliced_threads=0 / nr=0 / decimate=1 / interlaced=0 / bluray_compat=0 / constrained_intra=0 / bframes=9 / b_pyramid=1 / b_adapt=2 / b_bias=0 / direct=3 / weightb=1 / open_gop=0 / weightp=2 / keyint=100 / keyint_min=10 / scenecut=40 / intra_refresh=0 / rc_lookahead=100 / rc=2pass / mbtree=1 / bitrate=2500 / ratetol=1.0 / qcomp=0.60 / qpmin=0 / qpmax=69 / qpstep=4 / cplxblur=20.0 / qblur=0.5 / vbv_maxrate=3250 / vbv_bufsize=3750 / nal_hrd=none / ip_ratio=1.40 / aq=1:1.00
Language : 32
Audio
ID : 2
Format : AAC
Format/Info : Advanced Audio Codec
Format profile : LC
Codec ID : 40
Duration : 1h 34mn
Bit rate mode : Constant
Bit rate : 111 Kbps
Channel(s) : 2 channels
Channel positions : Front: L R
Sampling rate : 48.0 KHz
Compression mode : Lossy
Stream size : 74.9 MiB (4%)
Language : 32

-

Скриншоты 1 Сезона

Скриншоты 2 Сезона

Скриншоты 3 Сезона

[Профиль] [ЛС]
Кто просматривает тему:

Форум Тема Автор Размер
Discovery Discovery: Крупнейший в мире корабль (Серии 1-6 из 6) (Бенжамин Стотт) / Discovery: The world\'s biggest ship (Benjamin Stott) (Бенжамин Стотт / Benjamin Stott) [2013, ... reversefile 2.07 GB
Discovery Discovery: Крупнейший в мире корабль / Серии: 1-6 из 6 / The world\'s biggest ship (Бенжамин Стотт / Benjamin Stott) [2013, Документальный, научно-познавательный, SATRip] reversefile 2.33 GB
Техника и моделирование Hachette - Собери "Черную жемчужину", волшебный пиратский корабль №№1-100 [2012-2013, PDF, RUS] Garik014 1.36 GB
PBS PBS: Тайны Мертвых. Потерянные корабли Древнего Рима / Secrets of the Dead. Lost Ships of Rome [сезон 10 эпизод 3 ] (Роберт Хатэл / Robert Hartel) [2010 г., Документальный, исследование, история,... skorpionN 1.57 GB
Научная и техническая литература «Боевые корабли мира» (153 тома) [1995-2012, PDF, DjVu, FB2]-Межиздательская серия Garik014 3.1 GB
Научная и техническая литература Галина Гребенщикова - Линейный корабль «Двенадцать апостолов» (2016) PDF достали все 22 MB
Отечественные мультфильмы Гугуцэ-капитан корабля (Константин Балан) [1981, Рисованный мультфильм, VHSRip] painkiller 138 MB
Фильмы (DVD 5/9) Командир корабля (Владимир Браун) [1954, СССР, Драма, DVD5] TorrentFilm 3.12 GB
Показать сообщения:    

Текущее время: Сегодня 02:30

Часовой пояс: GMT



Вы не можете начинать темы
Вы не можете отвечать на сообщения
Вы не можете редактировать свои сообщения
Вы не можете удалять свои сообщения
Вы не можете голосовать в опросах
Вы не можете прикреплять файлы к сообщениям
Вы не можете скачивать файлы