Корабли пустыни / Ships of the desert (Георг Миш) [2012, Документальный, животные, познавательный, HDTVRip 720p]

 
Автор Сообщение

TorrentFilm ®

Пол:

Стаж: 2 года

Сообщений: 7741



Награды: Нет

Торрент-статистика

Создавать темы 22-Дек-2014 02:00

[Цитировать]

Корабли пустыни / Ships of the desert
Год выпуска: 2012
Страна: Австрия
Студия: Produced by Power of Earth Productons for ORF
Жанр: Документальный, животные, познавательный
Продолжительность: 00:50:07
Перевод: Профессиональный (двухголосый закадровый)
Доп. инфо о переводе: Первый ТВЧ
Режиссер: Георг Миш
Описание: Верблюды являются мастерами в искусстве выживания. Они могут жить без воды до десяти месяцев, а затем выпить 200 литров всего за 15 минут! Без верблюдов не могла бы развиться торговля, ведь с помощью караванов перевозили и перевозят до сих пор дорогие шелка и пряности. Владельцы верблюдов дорожат ими, как своими собственными детьми! Наш фильм – об этих удивительных животных и их потрясающих возможностях.
Сэмпл: http://rusfolder.com/42504920
Тип релиза: HDTVRip 720p
Контейнер: MKV
Видео: MPEG-4 AVC, 4100 Кбит/с, 1280x720
Аудио: AC3, 6 ch, 448 Кбит/с

MediaInfo

GeneralUnique ID : 234517548443715787107181657265693127883 (0xB06E6FD8E36B2AB7B6C0C30D982DF4CB)Complete name : E:\Торренты фильмы\Документальные\Корабли пустыни_720p.mkvFormat : MatroskaFormat version : Version 4 / Version 2File size : 1.59 GiBDuration : 50mn 7sOverall bit rate : 4 549 KbpsEncoded date : UTC 2014-12-10 13:38:10Writing application : mkvmerge v6.6.0 ('The Edge Of The In Between') built on Dec 1 2013 17:55:00Writing library : libebml v1.3.0 + libmatroska v1.4.1
VideoID : 1Format : AVCFormat/Info : Advanced Video CodecFormat profile : High@L4.1Format settings, CABAC : YesFormat settings, ReFrames : 9 framesCodec ID : V_MPEG4/ISO/AVCDuration : 50mn 7sBit rate : 4 100 KbpsWidth : 1 280 pixelsHeight : 720 pixelsDisplay aspect ratio : 16:9Frame rate mode : ConstantFrame rate : 25.000 fpsColor space : YUVChroma subsampling : 4:2:0Bit depth : 8 bitsScan type : ProgressiveBits/(Pixel*Frame) : 0.178Stream size : 1.40 GiB (88%)Writing library : x264 core 142 r2431 ac76440Encoding settings : cabac=1 / ref=9 / deblock=1:-1:-1 / analyse=0x3:0x133 / me=umh / subme=9 / psy=1 / psy_rd=1.00:0.10 / mixed_ref=1 / me_range=32 / chroma_me=1 / trellis=2 / 8x8dct=1 / cqm=0 / deadzone=21,11 / fast_pskip=1 / chroma_qp_offset=-3/ threads=6 / lookahead_threads=1 / sliced_threads=0 / nr=0 / decimate=0 / interlaced=0 / bluray_compat=0 / constrained_intra=0 / bframes=9 / b_pyramid=2 / b_adapt=2 / b_bias=0 / direct=3 / weightb=1 / open_gop=0 / weightp=2 / keyint=250 / keyint_min=23 / scenecut=40/ intra_refresh=0 / rc=2pass / mbtree=0 / bitrate=4100 / ratetol=1.0 / qcomp=0.60 / qpmin=0 / qpmax=69 / qpstep=4 / cplxblur=20.0 / qblur=0.5 / ip_ratio=1.40 / pb_ratio=1.30 / aq=1:1.00Language : EnglishDefault : YesForced : No
AudioID : 2Format : AC-3Format/Info : Audio Coding 3Mode extension : CM (complete main)Format settings, Endianness : BigCodec ID : A_AC3Duration : 50mn 7sBit rate mode : ConstantBit rate : 448 KbpsChannel(s) : 6 channelsChannel positions : Front: L C R, Side: L R, LFESampling rate : 48.0 KHzBit depth : 16 bitsCompression mode : LossyDelay relative to video : 118msStream size : 161 MiB (10%)Language : RussianDefault : YesForced : No

Скриншоты

[Профиль] [ЛС]
Кто просматривает тему:

Форум Тема Автор Размер
Discovery Discovery: Крупнейший в мире корабль (Серии 1-6 из 6) (Бенжамин Стотт) / Discovery: The world\'s biggest ship (Benjamin Stott) (Бенжамин Стотт / Benjamin Stott) [2013, ... reversefile 2.07 GB
Discovery Discovery: Крупнейший в мире корабль / Серии: 1-6 из 6 / The world\'s biggest ship (Бенжамин Стотт / Benjamin Stott) [2013, Документальный, научно-познавательный, SATRip] reversefile 2.33 GB
Техника и моделирование Hachette - Собери "Черную жемчужину", волшебный пиратский корабль №№1-100 [2012-2013, PDF, RUS] Garik014 1.36 GB
PBS PBS: Тайны Мертвых. Потерянные корабли Древнего Рима / Secrets of the Dead. Lost Ships of Rome [сезон 10 эпизод 3 ] (Роберт Хатэл / Robert Hartel) [2010 г., Документальный, исследование, история,... skorpionN 1.57 GB
Научная и техническая литература «Боевые корабли мира» (153 тома) [1995-2012, PDF, DjVu, FB2]-Межиздательская серия Garik014 3.1 GB
Научная и техническая литература Галина Гребенщикова - Линейный корабль «Двенадцать апостолов» (2016) PDF достали все 22 MB
Отечественные мультфильмы Гугуцэ-капитан корабля (Константин Балан) [1981, Рисованный мультфильм, VHSRip] painkiller 138 MB
Фильмы (DVD 5/9) Командир корабля (Владимир Браун) [1954, СССР, Драма, DVD5] TorrentFilm 3.12 GB
Показать сообщения:    

Текущее время: Сегодня 03:11

Часовой пояс: GMT



Вы не можете начинать темы
Вы не можете отвечать на сообщения
Вы не можете редактировать свои сообщения
Вы не можете удалять свои сообщения
Вы не можете голосовать в опросах
Вы не можете прикреплять файлы к сообщениям
Вы не можете скачивать файлы