Копы в юбках / The Heat (2013) BDRip 1080p | Unrated Cut

 
Автор Сообщение

sergej644 ®

Пол:

Стаж: 4 года 11 месяцев

Сообщений: 6038

Откуда: Soviet Union



Награды: Нет

Торрент-статистика

Создавать темы 21-Янв-2015 23:07

[Цитировать]

Информация о фильме
Название: Копы в юбках
Оригинальное название: The Heat
Год выхода: 2013
Жанр: комедия, криминал, боевик, детектив
Режиссер: Пол Фиг
В ролях: Сандра Буллок, Мелисса МакКарти, Демиан Бишир, Марлон Уайанс, Майкл Рапапорт, Томас Ф. Уилсон, Майкл МакДональд, Дэн Баккедаль, Таран Киллэм, Джейн Куртин
О фильме:
Агенту ФБР и бостонскому полицейскому доверено ответственное задание: выйти на след и обезвредить опасного преступника. И это даже хорошо, что копы - женщины, ведь бандит-то - русский. А непредсказуемости русской смекалки можно противопоставить только столь же непредсказуемую женскую логику.

Выпущено: США
Студия: 20th Century Fox
Продолжительность: 02:00:20
Перевод: Дублированный (лицензия) + Украинский + Оригинал
Файл
Кодек: x264
Качество: BDRip (источник: Blu-ray Disc)
Видео: 1920x800 (2,40:1), 23.976 fps, 7693 kbps
Аудио #1: AC-3, 6 ch, 448 kbps (Rus)
Аудио #2: AC-3, 6 ch, 448 kbps (Ukr)
Аудио #3: AC-3, 6 ch, 640 kbps (Eng)
Субтитры: Русские (форсированные), Русские, Украинские, Английские

MI

Общее
Уникальный идентификатор : 206732650478957343198261202584086642165 (0x9B87429CBAA6E7C0A0A707B9139DFDF5)
Полное имя : F:The.Heat.[Unrated.Cut].2013.BDRip.1080p.Rus.Ukr.Eng.mkv
Формат : Matroska
Версия формата : Version 2
Размер файла : 7,76 Гбайт
Продолжительность : 2 ч. 0 м.
Общий поток : 9233 Кбит/сек
Название фильма : Копы в юбках / The Heat (2013) [Unrated Cut]
Дата кодирования : UTC 2013-11-05 15:44:51
Программа кодирования : mkvmerge v5.8.0 ('No Sleep / Pillow') built on Sep 2 2012 15:37:04
Библиотека кодирования : libebml v1.2.3 + libmatroska v1.3.0
Attachment : Yes
Видео
Идентификатор : 1
Формат : AVC
Формат/Информация : Advanced Video Codec
Профиль формата : High@L4.1
Параметр CABAC формата : Да
Параметр ReFrames формата : 5 кадров
Идентификатор кодека : V_MPEG4/ISO/AVC
Продолжительность : 2 ч. 0 м.
Битрейт : 7693 Кбит/сек
Ширина : 1920 пикселей
Высота : 800 пикселей
Соотношение сторон : 2,40:1
Режим частоты кадров : Постоянный
Частота кадров : 23,976 кадра/сек
Цветовое пространство : YUV
Субдискретизация насыщенности : 4:2:0
Битовая глубина : 8 бит
Тип развёртки : Прогрессивная
Бит/(Пиксели*Кадры) : 0.209
Размер потока : 6,32 Гбайт (81%)
Заголовок : Release by N1NT3NDO
Библиотека кодирования : x264 core 140 r2377 1ca7bb9
Настройки программы : cabac=1 / ref=5 / deblock=1:-3:-3 / analyse=0x3:0x133 / me=umh / subme=11 / psy=1 / psy_rd=1.00:0.00 / mixed_ref=1 / me_range=32 / chroma_me=1 / trellis=2 / 8x8dct=1 / cqm=0 / deadzone=21,11 / fast_pskip=0 / chroma_qp_offset=-2 / threads=12 / lookahead_threads=1 / sliced_threads=0 / nr=0 / decimate=0 / interlaced=0 / bluray_compat=0 / constrained_intra=0 / bframes=6 / b_pyramid=2 / b_adapt=2 / b_bias=0 / direct=3 / weightb=1 / open_gop=0 / weightp=2 / keyint=240 / keyint_min=23 / scenecut=40 / intra_refresh=0 / rc_lookahead=80 / rc=2pass / mbtree=0 / bitrate=7693 / ratetol=1.0 / qcomp=0.60 / qpmin=0 / qpmax=69 / qpstep=4 / cplxblur=20.0 / qblur=0.5 / vbv_maxrate=50000 / vbv_bufsize=62500 / nal_hrd=none / filler=0 / ip_ratio=1.40 / pb_ratio=1.30 / aq=2:1.00
Язык : English
Default : Да
Forced : Нет
Аудио #1
Идентификатор : 2
Формат : AC-3
Формат/Информация : Audio Coding 3
Расширение режима : CM (complete main)
Параметр Endianness формата : Big
Идентификатор кодека : A_AC3
Продолжительность : 2 ч. 0 м.
Вид битрейта : Постоянный
Битрейт : 448 Кбит/сек
Каналы : 6 каналов
Расположение каналов : Front: L C R, Side: L R, LFE
Частота : 48,0 КГц
Битовая глубина : 16 бит
Метод сжатия : С потерями
Размер потока : 386 Мбайт (5%)
Заголовок : Rus
Язык : Russian
Default : Да
Forced : Нет
Аудио #2
Идентификатор : 3
Формат : AC-3
Формат/Информация : Audio Coding 3
Расширение режима : CM (complete main)
Параметр Endianness формата : Big
Идентификатор кодека : A_AC3
Продолжительность : 2 ч. 0 м.
Вид битрейта : Постоянный
Битрейт : 448 Кбит/сек
Каналы : 6 каналов
Расположение каналов : Front: L C R, Side: L R, LFE
Частота : 48,0 КГц
Битовая глубина : 16 бит
Метод сжатия : С потерями
Размер потока : 386 Мбайт (5%)
Заголовок : Ukr
Язык : Ukrainian
Default : Нет
Forced : Нет
Аудио #3
Идентификатор : 4
Формат : AC-3
Формат/Информация : Audio Coding 3
Расширение режима : CM (complete main)
Параметр Endianness формата : Big
Идентификатор кодека : A_AC3
Продолжительность : 2 ч. 0 м.
Вид битрейта : Постоянный
Битрейт : 640 Кбит/сек
Каналы : 6 каналов
Расположение каналов : Front: L C R, Side: L R, LFE
Частота : 48,0 КГц
Битовая глубина : 16 бит
Метод сжатия : С потерями
Размер потока : 551 Мбайт (7%)
Заголовок : Eng
Язык : English
Default : Нет
Forced : Нет
Текст #1
Идентификатор : 5
Формат : UTF-8
Идентификатор кодека : S_TEXT/UTF8
Идентификатор кодека/Информация : UTF-8 Plain Text
Заголовок : Rus (Forced)
Язык : Russian
Default : Да
Forced : Нет
Текст #2
Идентификатор : 6
Формат : UTF-8
Идентификатор кодека : S_TEXT/UTF8
Идентификатор кодека/Информация : UTF-8 Plain Text
Заголовок : Rus
Язык : Russian
Default : Нет
Forced : Нет
Текст #3
Идентификатор : 7
Формат : UTF-8
Идентификатор кодека : S_TEXT/UTF8
Идентификатор кодека/Информация : UTF-8 Plain Text
Заголовок : Ukr
Язык : Ukrainian
Default : Нет
Forced : Нет
Текст #4
Идентификатор : 8
Формат : UTF-8
Идентификатор кодека : S_TEXT/UTF8
Идентификатор кодека/Информация : UTF-8 Plain Text
Заголовок : Eng
Язык : English
Default : Нет
Forced : Нет
Меню
00:00:00.000 : en:00:00:00.000
00:01:46.023 : en:00:01:46.023
00:05:28.453 : en:00:05:28.453
00:07:15.977 : en:00:07:15.977
00:11:26.436 : en:00:11:26.436
00:14:17.899 : en:00:14:17.899
00:16:38.956 : en:00:16:38.956
00:19:50.940 : en:00:19:50.940
00:23:23.610 : en:00:23:23.610
00:26:18.118 : en:00:26:18.118
00:30:11.977 : en:00:30:11.977
00:34:07.837 : en:00:34:07.837
00:36:27.101 : en:00:36:27.101
00:39:12.975 : en:00:39:12.975
00:44:44.140 : en:00:44:44.140
00:47:59.585 : en:00:47:59.585
00:52:59.801 : en:00:52:59.801
00:56:13.787 : en:00:56:13.787
01:00:57.779 : en:01:00:57.779
01:03:25.802 : en:01:03:25.802
01:05:47.151 : en:01:05:47.151
01:09:34.795 : en:01:09:34.795
01:17:00.574 : en:01:17:00.574
01:23:38.638 : en:01:23:38.638
01:26:51.623 : en:01:26:51.623
01:28:37.020 : en:01:28:37.020
01:31:07.420 : en:01:31:07.420
01:34:08.559 : en:01:34:08.559
01:37:03.234 : en:01:37:03.234
01:39:41.225 : en:01:39:41.225
01:44:20.671 : en:01:44:20.671
01:45:41.502 : en:01:45:41.502
01:48:54.569 : en:01:48:54.569
01:51:15.710 : en:01:51:15.710
01:54:02.711 : en:01:54:02.711
01:55:24.876 : en:01:55:24.876

x264

x264 [info]: frame I:1708 Avg QP:16.77 size:213407
x264 [info]: frame P:35869 Avg QP:17.87 size: 77711
x264 [info]: frame B:135532 Avg QP:19.65 size: 27862
x264 [info]: consecutive B-frames: 2.1% 2.0% 9.4% 8.9% 14.0% 58.6% 5.1%

Дополнительная информация о релизе

100-я юбилейная раздача
[Профиль] [ЛС]
Кто просматривает тему:

Показать сообщения:    

Текущее время: Сегодня 02:14

Часовой пояс: GMT



Вы не можете начинать темы
Вы не можете отвечать на сообщения
Вы не можете редактировать свои сообщения
Вы не можете удалять свои сообщения
Вы не можете голосовать в опросах
Вы не можете прикреплять файлы к сообщениям
Вы не можете скачивать файлы