Концерт для морковного пирога / Kontsert porgandipirukale (Хейки Эрнитс, Янно Пылдма / Heiki Ernits, Janno Põldma) [2002, рисованная анимация, музыкальный, DVDRip] original + rus sub

 
Автор Сообщение

TorrentFilm ®

Пол:

Стаж: 2 года

Сообщений: 7741



Награды: Нет

Торрент-статистика

Создавать темы 01-Янв-2016 00:18

[Цитировать]

Концерт для морковного пирога / Kontsert porgandipirukale
Страна: Эстония
Жанр: рисованная анимация, музыкальный
Продолжительность: 00:11:36
Год выпуска: 2002
Перевод: субтитры
Русские субтитры: есть
Режиссёры: Хейки Эрнитс, Янно Пылдма / Heiki Ernits, Janno Põldma
Описание:
Как-то утром бабушка решила испечь морковный пирог. Дед с внучкой отправляются на огород за морковкой. В это время на крыше самодеятельный оркестр котов исполняет симфонию в трёх частях. Также принимают участие: слепой заяц, весёлые мухи и "трагичные" мыши. Короче, по мере сил поют все (даже рыбы).
Доп. информация:
Первый приз на Международном фестивале анимационных сказок (Япония)
Приз за Лучший мультфильм на фестивале анимационных фильмов "Bimini" (Латвия)
Специальный приз "Признание" детского жюри на кинофестивале для детей в Злине (Чехия)
Приз за Лучший мультфильм для детей на фестивале анимационных фильмов "Tindirindis" (Литва)
Премия "Серебряный слон" в категории Лучшая анимация на детском кинофестивале "Золотой Слон" (Индия)
Специальное упоминание жюри за "неожиданные моменты безумия" на фестивале анимационных фильмов "I Castelli Animati" (Италия)
Качество: DVDRip
Формат: AVI
Видео: 1454 kbps, 720х384 (1.85:1), 25.000 fps, MPEG-4 (XviD)
Аудио: 224 kbps, 48.0 kHz, 16 bit, 2 channels, AC-3
Субтитры: softsub (SRT)

Подробные технические данные

ОбщееПолное имя : Kontsert porgandipirukale (2002).aviФормат : AVIФормат/Информация : Audio Video InterleaveРазмер файла : 140 МбайтПродолжительность : 11 м.Общий поток : 1688 Кбит/секНазвание фильма : Kontsert porgandipirukale [2002] EST+EST/DVDrip/WS/XviD/AC3 2ch+MP3 2chРежиссёр : Heiki Ernits & Janno Pхldma [Eesti Joonisfilm]Тема : http://www.imdb.com/title/tt0399255/Программа кодирования : VirtualDubMod 1.5.10.2 (build 2540/release)Библиотека кодирования : VirtualDubMod build 2540/releaseПравообладатель : (stolen by) BPDcarrier for .EE folksПримечание : Xtra.2.Kontsert.porgandipirukale.2002.DVDrip.iNTERNAL.XviD-BPDcarrier.avi
ВидеоИдентификатор : 0Формат : MPEG-4 VisualПрофиль формата : Advanced Simple@L5Параметр BVOP формата : 1Параметр QPel формата : НетПараметр GMC формата : Без точки переходаПараметр матрицы формата : Default (H.263)Идентификатор кодека : XVIDИдентификатор кодека/Подсказка : XviDПродолжительность : 11 м.Битрейт : 1454 Кбит/секШирина : 720 пикселейВысота : 384 пикселяСоотношение сторон : 1,85:1Частота кадров : 25,000 кадров/секЦветовое пространство : YUVСубдискретизация насыщенности : 4:2:0Битовая глубина : 8 битТип развёртки : ПрогрессивнаяМетод сжатия : С потерямиБит/(Пиксели*Кадры) : 0.210Размер потока : 121 Мбайт (86%)
АудиоИдентификатор : 1Формат : AC-3Формат/Информация : Audio Coding 3Расширение режима : CM (complete main)Параметр Endianness формата : BigИдентификатор кодека : 2000Продолжительность : 11 м.Вид битрейта : ПостоянныйБитрейт : 224 Кбит/секКаналы : 2 каналаРасположение каналов : Front: L RЧастота : 48,0 КГцБитовая глубина : 16 битМетод сжатия : С потерямиРазмер потока : 18,6 Мбайт (13%)Выравнивание : Разделение по промежуткамПродолжительность промежутка : 40 мс. (1,00 видеокадр)Время предзагрузки промежутка : 500 мс.

Скриншоты

Пример субтитров

1
00:00:06,530 --> 00:00:09,200
КОНЦЕРТ
для морковного пирога
2
00:00:27,040 --> 00:00:28,600
Доброе утро!
3
00:00:33,960 --> 00:00:37,120
Увертюра и первая часть: "Пробуждение"
4
00:00:53,700 --> 00:00:55,670
Доброе утро!
5
00:00:57,730 --> 00:00:58,960
Утро!
6
00:01:00,120 --> 00:01:01,880
Утро!
7
00:01:44,030 --> 00:01:46,120
Приятного аппетита!
8
00:02:26,090 --> 00:02:26,800
Бородино!
9
00:02:27,140 --> 00:02:28,160
Ватерлоо!
10
00:02:30,240 --> 00:02:32,240
Веллингтон! Наполеон!
11
00:02:44,270 --> 00:02:46,230
Вторая часть: "Весёлые мухи"
12
00:02:55,680 --> 00:02:56,760
Зидан! Пеле!
13
00:02:56,830 --> 00:02:57,730
Марадона!
14
00:02:58,030 --> 00:02:58,790
Рональдо!
15
00:03:03,040 --> 00:03:04,640
Доброе утро!
[Профиль] [ЛС]
Показать сообщения:    

Текущее время: Сегодня 18:27

Часовой пояс: GMT



Вы не можете начинать темы
Вы не можете отвечать на сообщения
Вы не можете редактировать свои сообщения
Вы не можете удалять свои сообщения
Вы не можете голосовать в опросах
Вы не можете прикреплять файлы к сообщениям
Вы не можете скачивать файлы