Конфликт (Гарри Бардин) [1983 г., Мультфильм, Военный, DVDRip]

 
Автор Сообщение

TorrentFilm ®

Пол:

Стаж: 2 года

Сообщений: 7741



Награды: Нет

Торрент-статистика

Создавать темы 02-Янв-2016 00:07

[Цитировать]

КонфликтСтрана: СССР
Жанр: Мультфильм, Военный
Продолжительность: 00:07:08
Год выпуска: 1983
Выпущено: «Союзмультфильм»
Режиссёр Гарри Бардин
Русские субтитры: нетОписание:Объёмный.
Герои фильма — обыкновенные спички. Ссора, начавшаяся из-за пустяка, перешла в настоящее сражение...
В фильме использована музыка композитора Алессандро Марчелло «Концерт для гобоя и струнных ре минор, 2-я часть "Адажио"» (Alessandro Marcello – Concerto for Oboe and Strings in d-moll, 2nd movement ‘Adagio’) http://www.youtube.com/watch?v=LyaKbm1McDMНаграды• 1983 год — Диплом участника МКФ документальных и короткометражных фильмов в Бильбао (Испания).
• 1983 год — Диплом МКФ в Тампере (Финляндия).

Команда

Режиссёр Гарри Бардин
сценарист Гарри Бардин
художник-постановщик Николай Титов
аниматоры: Ирина Собинова-Кассиль, Сергей Косицын, Наталия Дабижа, Алла Соловьёва
оператор Сергей Хлебников
директор Григорий Хмара
композитор Сергей Анашкин
звукооператор Владимир Кутузов
редактор Татьяна Папорова
Художники-оформители: Александр Горбачёв, Валентин Ладыгин, Виктор Гришин, Наталия Гринберг, Михаил Колтунов
монтажёр Надежда Трещёва
Качество: DVDRip
Формат: AVI
Видео: 720x544 (1.32:1), 25 fps, XviD build 64 ~2396 kbps avg, 0.24 bit/pixel
Аудио: 48 kHz, AC3 Dolby Digital, 2/0 (L,R) ch, ~192 kbps
Субтитры: отсутствуют

Подробные технические данные

ОбщееПолное имя : D:\Мульты\Konflikt_(Garry_Bardin).aviФормат : AVIФормат/Информация : Audio Video InterleaveРазмер файла : 133 МбайтПродолжительность : 7 м. 8 с.Общий поток : 2599 Кбит/секПрограмма кодирования : VirtualDubMod 1.5.10.2 (build 2540/release)Библиотека кодирования : VirtualDubMod build 2540/release
ВидеоИдентификатор : 0Формат : MPEG-4 VisualПрофиль формата : Advanced Simple@L5Параметр BVOP формата : 2Параметр QPel формата : НетПараметр GMC формата : Без точки переходаПараметр матрицы формата : ВыборочнаяИдентификатор кодека : XVIDИдентификатор кодека/Подсказка : XviDПродолжительность : 7 м. 8 с.Битрейт : 2397 Кбит/секШирина : 720 пикселейВысота : 544 пикселяСоотношение сторон : 4:3Частота кадров : 25,000 кадров/секЦветовое пространство : YUVСубдискретизация насыщенности : 4:2:0Битовая глубина : 8 битТип развёртки : ПрогрессивнаяМетод сжатия : С потерямиБит/(Пиксели*Кадры) : 0.245Размер потока : 122 Мбайт (92%)Библиотека кодирования : XviD 64
АудиоИдентификатор : 1Формат : AC-3Формат/Информация : Audio Coding 3Расширение режима : CM (complete main)Идентификатор кодека : 2000Продолжительность : 7 м. 8 с.Вид битрейта : ПостоянныйБитрейт : 192 Кбит/секКаналы : 2 каналаРасположение каналов : Front: L RЧастота : 48,0 КГцБитовая глубина : 16 битМетод сжатия : С потерямиРазмер потока : 9,81 Мбайт (7%)Выравнивание : Разделение по промежуткамПродолжительность промежутка : 40 мс. (1,00 видеокадр)Время предзагрузки промежутка : 500 мс.
Subtitles: Not Present

Скриншоты

-Сравнение с другой раздачей:
"Конфликт" (Pablo, в сборнике, 640 x 480, DivX, ~1608 kbps) http://screenshotcomparison.com/comparison/46828
-
Другие мультфильмы Гарри БардинаАдажио (2000 г.)
Банкет (1986 г.)
Брак (1987 г.)
Брэк (1985 г.)
Брэк (1985 г.) ─ альтернативный
Выкрутасы (1987 г.)
Достать до неба (1975 г.)
Пиф-паф, ой-ой-ой (1980 г.)
Прежде мы были птицами (1982 г.)
Серый волк энд Красная Шапочка (1990 г.)
Тяп, Ляп — маляры! (1984 г.)
Чуча ─ 1, 2, 3 (1997, 2001, 2004 г.г.)- Все раздачи
[Профиль] [ЛС]
Кто просматривает тему:

Форум Тема Автор Размер
Action Конфликт: Вьетнамская война / Conflict: Vietnam (2004) (RUS) | RePack от R.G. Element Arts Russian Mafia 1.13 GB
Показать сообщения:    

Текущее время: Сегодня 14:43

Часовой пояс: GMT



Вы не можете начинать темы
Вы не можете отвечать на сообщения
Вы не можете редактировать свои сообщения
Вы не можете удалять свои сообщения
Вы не можете голосовать в опросах
Вы не можете прикреплять файлы к сообщениям
Вы не можете скачивать файлы