Конфеты или смерть / Trick or Treat (1986) BDRip 1080p | P2, A, L1

 
Author Message

Swager ®

Gender:

Longevity: 3 years 6 months

Posts: 2121



: 4 ()

За внесенный вклад в развитие сайта (1) Top Releaser 2 (1) Mega Seeder 1 (1)
Торрент-статистика

Post 14-Sep-2018 10:18

[Quote]

Название: Конфеты или смерть
Оригинальное название: Trick or Treat
Год выхода: 1986
Страна: США
Студия: De Laurentiis Entertainment Group (DEG)
Продолжительность: 01:37:12
Жанр: ужасы, комедия, музыка
Режиссер: Чарльз Мартин Смит
В ролях: Марк Прайс, Тони Филдс, Лиза Орголини, Даг Сэвант, Илэйн Джойс, Глен Морган, Джин Симмонс, Оззи Осборн, Элиз Ричардс, Ричард Пачорек, ...
Перевод: Профессиональный (двухголосый, закадровый) CP-Digital
О фильме: Когда знаменитый хард-рок музыкант Сэмми Карр погибает при таинственных обстоятельствах, глава местных «металлистов» Эдди чувствует, что и его жизнь кончена вместе с жизнью кумира. Но, прослушивая раз за разом последнюю запись Карра, Эдди обнаруживает, что может общаться с духом умершего музыканта. Тот дает Эдди весьма ценные советы, однако, постепенно его наставления приобретают все более жестокий оттенок. Эдди понимает, что стал пешкой в зловещей игре мертвых…

Тип релиза: BDRip 1080p
Контейнер: MKV
Видео: 1920x1080 (16:9), 23.976 fps, AVC, ~12.1 Mbps, 0.243 bits/pixel
Аудио: Russian, 48.0 KHz, AC3, 2 ch, 192 Kbps - DVO CP-Digital
Аудио 2: Russian, 48.0 KHz, AC3, 2 ch, 192 Kbps - Авторский - (Гаврилов)
Аудио 3: Russian, 48.0 KHz, AC3, 2 ch, 192 Kbps - Любительский одноголосый - Неопознанный
Аудио 4: English, 48.0 KHz, AC3, 2 ch, 192 Kbps
Субтитры: русские, английские
Сэмпл: https://yadi.sk/i/ePMLqe_HMPuj2Q

MediaInfo

Общее
Уникальный идентификатор : 207600378669231723405922978698150353715 (0x9C2E60EA427F98E5AD5A3720FC951B33)
Полное имя : D:Trick.or.Treat.1986.BDRip.1080p.3.Rus.Eng.mkv
Формат : Matroska
Версия формата : Version 4 / Version 2
Размер файла : 8,74 Гбайт
Продолжительность : 1 ч. 37 м.
Общий поток : 12,9 Мбит/сек
Дата кодирования : UTC 2018-09-14 07:18:19
Программа кодирования : mkvmerge v7.9.0 ('Birds') 64bit
Библиотека кодирования : libebml v1.3.1 + libmatroska v1.4.2
Видео
Идентификатор : 1
Формат : AVC
Формат/Информация : Advanced Video Codec
Профиль формата : High@L4.1
Параметр CABAC формата : Да
Параметр RefFrames формата : 4 кадра
Идентификатор кодека : V_MPEG4/ISO/AVC
Продолжительность : 1 ч. 37 м.
Битрейт : 12,1 Мбит/сек
Ширина : 1920 пикселей
Высота : 1080 пикселей
Соотношение сторон : 16:9
Режим частоты кадров : Постоянный
Частота кадров : 23,976 (24000/1001) кадра/сек
Цветовое пространство : YUV
Субдискретизация насыщенности : 4:2:0
Битовая глубина : 8 бит
Тип развёртки : Прогрессивная
Бит/(Пиксели*Кадры) : 0.243
Размер потока : 8,22 Гбайт (94%)
Библиотека кодирования : x264 core 142 r2479 dd79a61
Настройки программы : cabac=1 / ref=4 / deblock=1:-2:-2 / analyse=0x3:0x133 / me=umh / subme=9 / psy=1 / psy_rd=1.00:0.00 / mixed_ref=1 / me_range=16 / chroma_me=1 / trellis=1 / 8x8dct=1 / cqm=0 / deadzone=21,11 / fast_pskip=0 / chroma_qp_offset=-2 / threads=6 / lookahead_threads=1 / sliced_threads=0 / nr=0 / decimate=1 / interlaced=0 / bluray_compat=0 / constrained_intra=0 / bframes=3 / b_pyramid=2 / b_adapt=1 / b_bias=0 / direct=1 / weightb=1 / open_gop=0 / weightp=2 / keyint=250 / keyint_min=23 / scenecut=40 / intra_refresh=0 / rc_lookahead=40 / rc=2pass / mbtree=1 / bitrate=12103 / ratetol=1.0 / qcomp=0.60 / qpmin=0 / qpmax=69 / qpstep=4 / cplxblur=20.0 / qblur=0.5 / ip_ratio=1.40 / aq=1:1.00
Язык : English
Default : Нет
Forced : Нет
Аудио #1
Идентификатор : 2
Формат : AC-3
Формат/Информация : Audio Coding 3
Параметр Endianness формата : Big
Идентификатор кодека : A_AC3
Продолжительность : 1 ч. 37 м.
Вид битрейта : Постоянный
Битрейт : 192 Кбит/сек
Каналы : 2 канала
Расположение каналов : Front: L R
Частота : 48,0 КГц
Частота кадров : 31,250 кадров/сек (1536 SPF)
Битовая глубина : 16 бит
Метод сжатия : С потерями
Размер потока : 133 Мбайт (1%)
Заголовок : DVO CP-Digital
Язык : Russian
ServiceKind/String : Complete Main
Default : Нет
Forced : Нет
Аудио #2
Идентификатор : 3
Формат : AC-3
Формат/Информация : Audio Coding 3
Параметр Endianness формата : Big
Идентификатор кодека : A_AC3
Продолжительность : 1 ч. 37 м.
Вид битрейта : Постоянный
Битрейт : 192 Кбит/сек
Каналы : 2 канала
Расположение каналов : Front: L R
Частота : 48,0 КГц
Частота кадров : 31,250 кадров/сек (1536 SPF)
Битовая глубина : 16 бит
Метод сжатия : С потерями
Размер потока : 133 Мбайт (1%)
Заголовок : Авторский - (Гаврилов)
Язык : Russian
ServiceKind/String : Complete Main
Default : Нет
Forced : Нет
Аудио #3
Идентификатор : 4
Формат : AC-3
Формат/Информация : Audio Coding 3
Параметр Endianness формата : Big
Идентификатор кодека : A_AC3
Продолжительность : 1 ч. 37 м.
Вид битрейта : Постоянный
Битрейт : 192 Кбит/сек
Каналы : 2 канала
Расположение каналов : Front: L R
Частота : 48,0 КГц
Частота кадров : 31,250 кадров/сек (1536 SPF)
Битовая глубина : 16 бит
Метод сжатия : С потерями
Размер потока : 133 Мбайт (1%)
Заголовок : Любительский одноголосый - Неопознанный
Язык : Russian
ServiceKind/String : Complete Main
Default : Нет
Forced : Нет
Аудио #4
Идентификатор : 5
Формат : AC-3
Формат/Информация : Audio Coding 3
Параметр Endianness формата : Big
Идентификатор кодека : A_AC3
Продолжительность : 1 ч. 37 м.
Вид битрейта : Постоянный
Битрейт : 192 Кбит/сек
Каналы : 2 канала
Расположение каналов : Front: L R
Частота : 48,0 КГц
Частота кадров : 31,250 кадров/сек (1536 SPF)
Битовая глубина : 16 бит
Метод сжатия : С потерями
Размер потока : 133 Мбайт (1%)
Язык : English
ServiceKind/String : Complete Main
Default : Нет
Forced : Нет
Текст #1
Идентификатор : 6
Формат : UTF-8
Идентификатор кодека : S_TEXT/UTF8
Идентификатор кодека/Информация : UTF-8 Plain Text
Продолжительность : 1 ч. 32 м.
Битрейт : 48 бит/сек
ElementCount : 604
Размер потока : 33,0 Кбайт (0%)
Язык : Russian
Default : Нет
Forced : Нет
Текст #2
Идентификатор : 7
Формат : UTF-8
Идентификатор кодека : S_TEXT/UTF8
Идентификатор кодека/Информация : UTF-8 Plain Text
Продолжительность : 1 ч. 32 м.
Битрейт : 29 бит/сек
ElementCount : 615
Размер потока : 20,0 Кбайт (0%)
Язык : English
Default : Нет
Forced : Нет

Скриншоты


[Profile] [PM]
Display posts from previous:    

The time now is: Today 10:37

All times are GMT



You cannot post new topics in this forum
You cannot reply to topics in this forum
You cannot edit your posts in this forum
You cannot delete your posts in this forum
You cannot vote in polls in this forum
You cannot attach files in this forum
You cannot download files in this forum