Контуженый, или уроки плавания вольным стилем [01-04 из 04] (2014) HDTVRip-AVC

 
Автор Сообщение

Белочка ®

Пол:

Стаж: 5 лет 1 месяц

Сообщений: 2089



Награды: 1 (Подробнее)

Girls (Количество: 1)
Торрент-статистика

Создавать темы 25-Окт-2014 21:41

[Цитировать]

Информация о фильме
Оригинальное название: Контуженый, или уроки плавания вольным стилем
Год выпуска: 2014
Жанр: Драма
Режиссер: Владимир Зайкин
В ролях: Виктор Хориняк, Мария Баева, Юрий Стоянов, Дмитрий Нагиев, Михаил Горевой, Эра Зиганшина, Михаил Ефремов, Александр Панкратов-Чёрный, Александр Мохов, Мария Берсенева, Андрей Руденский, Кирилл Продолятченко
О фильме: Артем Савушкин, надежда российской команды по плаванию, после серьезной травмы возвращается в городок детства и видит там большие перемены: во Дворце спорта теперь ночной клуб, а на улицах подростки торгуют «дурью». Артем решает изменить сложившуюся ситуацию…
Страна: Россия
Студия: Фокус Фильм
Продолжительность: 4 х ~ 00:48:00
Язык: Русский
Файл
Кодек: MPEG-4 AVC
Качество: HDTVRip (AVC)
Видео: ~ 2200 Кбит/с, 1024x576
Звук: АС3, 6 ch, 384 Кбит/с

Скриншоты

Инфо-файл

Общее
Уникальный идентификатор : 253730984682622911793888983382929323302 (0xBEE2CF64264EE7069E9578AB3CDE3526)
Полное имя : C:UsersалександрDesktopКонтуженый, Или Уроки Плавания Вольным Стилем HDTVRip AVCКонтуженый, Или Уроки Плавания Вольным Стилем 01_серия_HDTVRip_AVC_by_Серый1779.mkv
Формат : Matroska
Версия формата : Version 2
Размер файла : 887 Мбайт
Продолжительность : 47 м.
Общий поток : 2586 Кбит/сек
Дата кодирования : UTC 2014-04-30 22:41:54
Программа кодирования : mkvmerge v5.6.0 ('Kenya Kane') built on Jun 29 2012 15:01:44
Библиотека кодирования : libebml v1.2.3 + libmatroska v1.3.0
Видео
Идентификатор : 1
Формат : AVC
Формат/Информация : Advanced Video Codec
Профиль формата : High@L4.1
Параметр CABAC формата : Да
Параметр ReFrames формата : 9 кадров
Идентификатор кодека : V_MPEG4/ISO/AVC
Продолжительность : 47 м.
Битрейт : 2200 Кбит/сек
Ширина : 1024 пикселя
Высота : 576 пикселей
Соотношение сторон : 16:9
Режим частоты кадров : Постоянный
Частота кадров : 25,000 кадров/сек
Цветовое пространство : YUV
Субдискретизация насыщенности : 4:2:0
Битовая глубина : 8 бит
Тип развёртки : Прогрессивная
Бит/(Пиксели*Кадры) : 0.149
Размер потока : 738 Мбайт (83%)
Библиотека кодирования : x264 core 125 r2200 999b753
Настройки программы : cabac=1 / ref=9 / deblock=1:-2:-1 / analyse=0x3:0x133 / me=umh / subme=9 / psy=1 / psy_rd=1.10:0.15 / mixed_ref=1 / me_range=32 / chroma_me=1 / trellis=2 / 8x8dct=1 / cqm=0 / deadzone=21,11 / fast_pskip=0 / chroma_qp_offset=-3 / threads=3 / lookahead_threads=1 / sliced_threads=0 / nr=0 / decimate=1 / interlaced=0 / bluray_compat=0 / constrained_intra=0 / bframes=9 / b_pyramid=2 / b_adapt=2 / b_bias=0 / direct=1 / weightb=1 / open_gop=0 / weightp=2 / keyint=250 / keyint_min=25 / scenecut=40 / intra_refresh=0 / rc=2pass / mbtree=0 / bitrate=2200 / ratetol=1.0 / qcomp=0.60 / qpmin=0 / qpmax=69 / qpstep=4 / cplxblur=20.0 / qblur=0.5 / ip_ratio=1.40 / pb_ratio=1.30 / aq=2:0.90
Default : Да
Forced : Нет
Основные цвета : BT.709
Характеристики трансфера : BT.709
Коэффициенты матрицы : BT.709
Аудио
Идентификатор : 2
Формат : AC-3
Формат/Информация : Audio Coding 3
Расширение режима : CM (complete main)
Параметр Endianness формата : Big
Идентификатор кодека : A_AC3
Продолжительность : 47 м.
Вид битрейта : Постоянный
Битрейт : 384 Кбит/сек
Каналы : 6 каналов
Расположение каналов : Front: L C R, Side: L R, LFE
Частота : 48,0 КГц
Битовая глубина : 16 бит
Метод сжатия : С потерями
Размер потока : 132 Мбайт (15%)
Default : Да
Forced : Нет
[Профиль] [ЛС]
Кто просматривает тему:

Показать сообщения:    

Текущее время: Сегодня 18:20

Часовой пояс: GMT



Вы не можете начинать темы
Вы не можете отвечать на сообщения
Вы не можете редактировать свои сообщения
Вы не можете удалять свои сообщения
Вы не можете голосовать в опросах
Вы не можете прикреплять файлы к сообщениям
Вы не можете скачивать файлы