Контрибуция (2016) WEB-DLRip-AVC | Полная версия

 
Автор Сообщение

достали все ®

Пол:

Стаж: 1 год 8 месяцев

Сообщений: 6565



Награды: 12 (Подробнее)

Mega Seeder 2 (Количество: 1) Top Releaser 3 (Количество: 1) Mega Releaser 2 (Количество: 1)
Торрент-статистика

Создавать темы 26-Апр-2016 03:19

[Цитировать]

Информация о фильме
Название: Контрибуция
Год выхода: 2016
Жанр: История, детектив
Режиссер: Сергей Снежкин
В ролях: Максим Матвеев, Елизавета Боярская, Надежда Толубеева, Илья Носков, Евгений Дятлов, Константин Воробьёв, Артур Ваха, Юрий Ицков, Игорь Черневич, Сергей Перегудов
О фильме:
Действие «Контрибуции» происходит в 1918 году в Перми. Среднесибирский белогвардейский корпус под командованием молодого генерала Анатолия Николаевича Пепеляева захватывает город. Армия измотана, не хватает патронов, обмундирования, провианта. Генерал приглашает пермских купцов с целью собрать деньги для нужд армии. Богатая вдова Чагина приносит в качестве контрибуции дорогой бриллиант. На следующий день бриллиант таинственным образом исчезает. На поиски привлекают приговоренного к смерти «красного» следователя Андрея Мурзина, который должен найти бриллиант в обмен на помилование.
Страна: Россия
Продолжительность: 02:42:15
Перевод: не требуется
Файл
Кодек: x264
Качество: WEB-DLRip-AVC
Видео: MPEG-4 AVC, 2300 Кбит/с, 1152x492
Звук: AC3, 2 ch, 192 Кбит/с

Скриншоты

Медиа-Инфо

raw [info]: 1152x492p 1:1 @ 25/1 fps (cfr)
x264 [info]: using SAR=1/1
x264 [info]: using cpu capabilities: MMX2 SSE2Fast SSSE3 SSE4.2 AVX
x264 [info]: profile High, level 4.1
x264 [info]: frame I:1870 Avg QP:13.90 size: 93604
x264 [info]: frame P:64321 Avg QP:17.76 size: 26374
x264 [info]: frame B:177204 Avg QP:19.44 size: 5228
x264 [info]: consecutive B-frames: 2.2% 3.5% 8.4% 71.1% 8.1% 4.7% 0.7% 0.9% 0.1% 0.2%
==============================================================================================================================
Общее
Уникальный идентификатор : 221590695817025810493345514371474215982 (0xA6B4D0CE409B09878BA07DEE2357542E)
Полное имя : D:Контибуция_2016-WEB-DLRip-AVC.mkv
Формат : Matroska
Версия формата : Version 2
Размер файла : 2,83 Гбайт
Продолжительность : 2 ч. 42 м.
Общий поток : 2493 Кбит/сек
Дата кодирования : UTC 2016-04-25 16:52:35
Программа кодирования : mkvmerge v5.8.0 ('No Sleep / Pillow') built on Sep 2 2012 15:37:04
Библиотека кодирования : libebml v1.2.3 + libmatroska v1.3.0
Видео
Идентификатор : 1
Формат : AVC
Формат/Информация : Advanced Video Codec
Профиль формата : High@L4.1
Параметр CABAC формата : Да
Параметр ReFrames формата : 14 кадров
Идентификатор кодека : V_MPEG4/ISO/AVC
Продолжительность : 2 ч. 42 м.
Битрейт : 2300 Кбит/сек
Ширина : 1152 пикселя
Высота : 492 пикселя
Соотношение сторон : 2,35:1
Режим частоты кадров : Постоянный
Частота кадров : 25,000 кадров/сек
Цветовое пространство : YUV
Субдискретизация насыщенности : 4:2:0
Битовая глубина : 8 бит
Тип развёртки : Прогрессивная
Бит/(Пиксели*Кадры) : 0.162
Размер потока : 2,55 Гбайт (90%)
Библиотека кодирования : x264 core 148 r2638 7599210
Настройки программы : cabac=1 / ref=14 / deblock=1:-2:-2 / analyse=0x3:0x113 / me=umh / subme=10 / psy=1 / psy_rd=1.05:0.15 / mixed_ref=1 / me_range=32 / chroma_me=1 / trellis=2 / 8x8dct=1 / cqm=0 / deadzone=21,11 / fast_pskip=0 / chroma_qp_offset=-3 / threads=12 / lookahead_threads=2 / sliced_threads=0 / nr=0 / decimate=0 / interlaced=0 / bluray_compat=0 / constrained_intra=0 / bframes=9 / b_pyramid=2 / b_adapt=2 / b_bias=0 / direct=3 / weightb=1 / open_gop=0 / weightp=2 / keyint=250 / keyint_min=25 / scenecut=40 / intra_refresh=0 / rc=2pass / mbtree=0 / bitrate=2300 / ratetol=1.0 / qcomp=0.63 / qpmin=0 / qpmax=39 / qpstep=4 / cplxblur=20.0 / qblur=0.5 / ip_ratio=1.40 / pb_ratio=1.30 / aq=1:1.00
Язык : English
Default : Да
Forced : Нет
Цветовой диапазон : Limited
Основные цвета : BT.709
Характеристики трансфера : BT.709
Коэффициенты матрицы : BT.709
Аудио
Идентификатор : 2
Формат : AC-3
Формат/Информация : Audio Coding 3
Расширение режима : CM (complete main)
Параметр Endianness формата : Big
Идентификатор кодека : A_AC3
Продолжительность : 2 ч. 42 м.
Вид битрейта : Постоянный
Битрейт : 192 Кбит/сек
Каналы : 2 канала
Расположение каналов : Front: L R
Частота : 48,0 КГц
Метод сжатия : С потерями
Размер потока : 223 Мбайт (8%)
Язык : Russian
Default : Да
Forced : Нет
Автор релиза:
[Профиль] [ЛС]
Кто просматривает тему:

Форум Тема Автор Размер
Научная и техническая литература Agilent Technologies | Контрольно-измерительное оборудование. Каталог 2007 (2007) [PDF] sergej644 9 MB
Da Vinci Learning Da Vinci Learning: Крайности (Контрасты): свет и тьма / Extreme: Light and Dark (Udo Maurer) [2013 г., Документальный, образование, история, путешествия, SATRip] skorpionN 685 MB
Программы [Контакты] Talklog: контроль телефонных звонков и sms [Android 2.0+, RUS] TorrentFilm 30 KB
Программы [Система] Accu-Chek 360 - система для контроля и анализа уровня глюкозы крови v.1.0.1.3 [Android 2.2+, RUS + ENG] TorrentFilm 2 MB
R.G.TorrentFilm Video В поисках золотого фаллоса / Контрабандист (Себастьян Аларкон) [1992 г., Комедия, криминал, SATRip] Один 777 747 MB
Разная литература Виктор Суворов | Контроль (2014) [FB2, EPUB] достали все 2 MB
Фантастика, фэнтези Владимир Контровский - Собрание сочинений (157 книг) [2013, Фантастика, Фэнтези, История, Военная история, FB2, DOC, RTF] Garik014 86 MB
Компьютерная литература (Программирование) Дюгуров Д.В. - Управление контроллером домена. Упражнения и задачи [2012, PDF, RUS] TorrentFilm 812 KB
Показать сообщения:    

Текущее время: Сегодня 14:28

Часовой пояс: GMT



Вы не можете начинать темы
Вы не можете отвечать на сообщения
Вы не можете редактировать свои сообщения
Вы не можете удалять свои сообщения
Вы не можете голосовать в опросах
Вы не можете прикреплять файлы к сообщениям
Вы не можете скачивать файлы