Контракт / The Contract (Ник Ауэрбах / Nic Auerbach) [2015, Великобритания, боевик, триллер, криминал, HDRip] VO (Xixidok)

 
Автор Сообщение

TorrentFilm ®

Пол:

Стаж: 2 года

Сообщений: 7741



Награды: Нет

Торрент-статистика

Создавать темы 15-Дек-2015 00:12

[Цитировать]

Контракт / The Contract
Страна: Великобритания
Жанр: боевик, триллер, криминал
Год выпуска: 2015
Продолжительность: 01:38:35-Перевод: Одноголосый закадровый Xixidok
Cубтитры: нет
Оригинальная аудиодорожка: нет-Режиссер: Ник Ауэрбах / Nic Auerbach-В ролях: Дэниэл Уэбб, Изабелль Аллен, Сара Армстронг, Патрик Райкарт, Никки Эванс, Пенни Джудд, Роберт Фусилла, Antonio Khela, Джек Брэйди, Джонатан Родс
Описание: Два мира сталкиваются, когда финансист возвращается к себе домой и находит его заселенным чужими людьми.-Сэмпл: http://sendfile.su/1181650


Качество видео: HDRip (исходник неизвестен)
Формат видео: AVI
Видео: 720x304 (2.37:1), 25 fps, XviD build 50 ~1910 kbps avg, 0.35 bit/pixel
Аудио: 48 kHz, AC3 Dolby Digital, 2/0 (L,R) ch, ~192 kbps

MediaInfo

Формат : AVI
Формат/Информация : Audio Video Interleave
Размер файла : 1,45 Гбайт
Продолжительность : 1 ч. 38 м.
Общий поток : 2112 Кбит/сек
Программа кодирования : VirtualDubMod 1.5.10.2 (build 2540/release)
Библиотека кодирования : VirtualDubMod build 2540/release
Видео
Идентификатор : 0
Формат : MPEG-4 Visual
Профиль формата : Advanced Simple@L5
Параметр BVOP формата : 1
Параметр QPel формата : Нет
Параметр GMC формата : Без точки перехода
Параметр матрицы формата : Default (MPEG)
Идентификатор кодека : XVID
Идентификатор кодека/Подсказка : XviD
Продолжительность : 1 ч. 38 м.
Битрейт : 1910 Кбит/сек
Ширина : 720 пикселей
Высота : 304 пикселя
Соотношение сторон : 2,35:1
Частота кадров : 25,000 кадров/сек
Цветовое пространство : YUV
Субдискретизация насыщенности : 4:2:0
Битовая глубина : 8 бит
Тип развёртки : Прогрессивная
Метод сжатия : С потерями
Бит/(Пиксели*Кадры) : 0.349
Размер потока : 1,32 Гбайт (90%)
Библиотека кодирования : XviD 1.2.1 (UTC 2008-12-04)
Аудио
Идентификатор : 1
Формат : AC-3
Формат/Информация : Audio Coding 3
Расширение режима : CM (complete main)
Параметр Endianness формата : Big
Идентификатор кодека : 2000
Продолжительность : 1 ч. 38 м.
Вид битрейта : Постоянный
Битрейт : 192 Кбит/сек
Каналы : 2 канала
Расположение каналов : Front: L R
Частота : 48,0 КГц
Частота кадров : 31,250 кадров/сек (1536 spf)
Метод сжатия : С потерями
Размер потока : 135 Мбайт (9%)
Выравнивание : Разделение по промежуткам
Продолжительность промежутка : 40 мс. (1,00 видеокадр)
Время предзагрузки промежутка : 500 мс.

Скриншот c названием фильма

Скриншоты





[Профиль] [ЛС]
Кто просматривает тему:

Форум Тема Автор Размер
Научная и техническая литература Agilent Technologies | Контрольно-измерительное оборудование. Каталог 2007 (2007) [PDF] sergej644 9 MB
Da Vinci Learning Da Vinci Learning: Крайности (Контрасты): свет и тьма / Extreme: Light and Dark (Udo Maurer) [2013 г., Документальный, образование, история, путешествия, SATRip] skorpionN 685 MB
Программы [Контакты] Talklog: контроль телефонных звонков и sms [Android 2.0+, RUS] TorrentFilm 30 KB
Программы [Система] Accu-Chek 360 - система для контроля и анализа уровня глюкозы крови v.1.0.1.3 [Android 2.2+, RUS + ENG] TorrentFilm 2 MB
R.G.TorrentFilm Video В поисках золотого фаллоса / Контрабандист (Себастьян Аларкон) [1992 г., Комедия, криминал, SATRip] Один 777 747 MB
Разная литература Виктор Суворов | Контроль (2014) [FB2, EPUB] достали все 2 MB
Фантастика, фэнтези Владимир Контровский - Собрание сочинений (157 книг) [2013, Фантастика, Фэнтези, История, Военная история, FB2, DOC, RTF] Garik014 86 MB
Компьютерная литература (Программирование) Дюгуров Д.В. - Управление контроллером домена. Упражнения и задачи [2012, PDF, RUS] TorrentFilm 812 KB
Показать сообщения:    

Текущее время: Сегодня 10:14

Часовой пояс: GMT



Вы не можете начинать темы
Вы не можете отвечать на сообщения
Вы не можете редактировать свои сообщения
Вы не можете удалять свои сообщения
Вы не можете голосовать в опросах
Вы не можете прикреплять файлы к сообщениям
Вы не можете скачивать файлы