Контрабанда / Contraband (2012) BDRip 1080p | Лицензия

 
Автор Сообщение

Russian Mafia ®

Пол:

Стаж: 1 год 8 месяцев

Сообщений: 4256



Награды: 10 (Подробнее)

Top Releaser 3 (Количество: 1) Mega Seeder 2 (Количество: 1) Mega Seeder 4 (Количество: 1)
Торрент-статистика

Создавать темы 27-Сен-2015 15:10

[Цитировать]

«Большой куш. Крутая команда. Смертельный риск.»
Информация о фильме
Название: Контрабанда
Оригинальное название: Contraband
Год выхода: 2012
Выпущено: США , Франция , Великобритания / Universal Pictures, Relativity Media, Working Title Films
Жанр: боевик, триллер, драма, криминал
Режиссер: Бальтасар Кормакур
В ролях: Кейт Бекинсейл, Марк Уолберг, Бен Фостер, Джованни Рибизи, Лукас Хаас Дж.К. Симмонс, Диего Луна, Жаклин Флеминг, Роберт Уолберг, Калеб Лэндри Джонс
О фильме: Мир контрабандистов — это большие ставки и огромный риск. Cтоит оступиться лишь раз, и тебя ждет смерть. В этом мире Крис был лучшим, его называли Гудини, но он вышел из игры, женился и начал новую жизнь.
К несчастью, Энди, друг Криса, провалил одно дело. Теперь платить по счетам придется обоим. У них есть всего две недели на то, чтобы доставить из Панамы в США 15 миллионов фальшивых долларов, разделенных на 4 партии, каждая размером с Мини Купер. Не успеют — они знают правила…


Файл
Качество: BDRip 1080p
Видео: MPEG-4 AVC, 13.5 Мбит/с, 1920x816
Аудио: Русский (AC3, 6 ch, 448 Кбит/с), английский (DTS, 6 ch, 1510 Кбит/с)
Продолжительность: 01:49:38
Перевод: Дублированный [Лицензия]
Субтитры: Английские

Инфо-файл

Общее
Полное имя : Kontrabanda.2012.D.BDRip.1080p.ELEKTRI4KA.mkv
Формат : Matroska
Версия формата : Version 2
Размер файла : 11,8 Гбайт
Продолжительность : 1 ч. 49 м.
Общий поток : 15,4 Мбит/сек
Название фильма : Kontrabanda.2012.D.BDRip.1080p.ELEKTRI4KA
Дата кодирования : UTC 2012-04-14 16:34:06
Программа кодирования : mkvmerge v5.3.0 ('I could have danced') built on Feb 9 2012 10:38:07
Библиотека кодирования : libebml v1.2.3 + libmatroska v1.3.0
Видео
Идентификатор : 1
Формат : AVC
Формат/Информация : Advanced Video Codec
Профиль формата : High@L4.1
Параметр CABAC формата : Да
Параметр ReFrames формата : 5 кадров
Идентификатор кодека : V_MPEG4/ISO/AVC
Продолжительность : 1 ч. 49 м.
Битрейт : 13,5 Мбит/сек
Ширина : 1920 пикс.
Высота : 816 пикс.
Соотношение сторон : 2,35:1
Частота кадров : 23,976 кадр/сек
Цветовое пространство : YUV
Подвыборка цветности : 4:2:0
Битовая глубина : 8 бит
Тип развёртки : Прогрессивная
Бит/(Пиксели*Кадры) : 0.360
Размер потока : 10,1 Гбайт (85%)
Заголовок : Kontrabanda.2012.D.BDRip.1080p.ELEKTRI4KA
Библиотека кодирования : x264 core 120 r2146 bcd41db
Настройки программы : cabac=1 / ref=5 / deblock=1:-3:-3 / analyse=0x3:0x113 / me=umh / subme=10 / psy=1 / psy_rd=1.05:0.10 / mixed_ref=1 / me_range=32 / chroma_me=1 / trellis=2 / 8x8dct=1 / cqm=0 / deadzone=21,11 / fast_pskip=0 / chroma_qp_offset=-2 / threads=8 / sliced_threads=0 / nr=0 / decimate=1 / interlaced=0 / bluray_compat=0 / constrained_intra=0 / bframes=6 / b_pyramid=2 / b_adapt=2 / b_bias=0 / direct=3 / weightb=1 / open_gop=0 / weightp=2 / keyint=250 / keyint_min=23 / scenecut=40 / intra_refresh=0 / rc_lookahead=40 / rc=2pass / mbtree=0 / bitrate=13505 / ratetol=1.0 / qcomp=0.70 / qpmin=0 / qpmax=69 / qpstep=4 / cplxblur=20.0 / qblur=0.5 / vbv_maxrate=40000 / vbv_bufsize=40000 / nal_hrd=none / ip_ratio=1.40 / pb_ratio=1.30 / aq=2:0.90
Язык : English
Аудио #1
Идентификатор : 2
Формат : AC-3
Формат/Информация : Audio Coding 3
Расширение режима : CM (complete main)
Идентификатор кодека : A_AC3
Продолжительность : 1 ч. 49 м.
Вид битрейта : Постоянный
Битрейт : 448 Кбит/сек
Каналы : 6 каналов
Расположение каналов : Front: L C R, Side: L R, LFE
Частота : 48,0 КГц
Битовая глубина : 16 бит
Метод сжатия : С потерями
Размер потока : 351 Мбайт (3%)
Язык : Russian
Аудио #2
Идентификатор : 3
Формат : DTS
Формат/Информация : Digital Theater Systems
Идентификатор кодека : A_DTS
Продолжительность : 1 ч. 49 м.
Вид битрейта : Постоянный
Битрейт : 1510 Кбит/сек
Каналы : 6 каналов
Расположение каналов : Front: L C R, Side: L R, LFE
Частота : 48,0 КГц
Битовая глубина : 24 бит
Метод сжатия : С потерями
Размер потока : 1,16 Гбайт (10%)
Язык : English
Текст
Идентификатор : 4
Формат : UTF-8
Идентификатор кодека : S_TEXT/UTF8
Идентификатор кодека/Информация : UTF-8 Plain Text
Язык : English

Скриншоты

[Профиль] [ЛС]
Кто просматривает тему:

Форум Тема Автор Размер
Научная и техническая литература Agilent Technologies | Контрольно-измерительное оборудование. Каталог 2007 (2007) [PDF] sergej644 9 MB
Da Vinci Learning Da Vinci Learning: Крайности (Контрасты): свет и тьма / Extreme: Light and Dark (Udo Maurer) [2013 г., Документальный, образование, история, путешествия, SATRip] skorpionN 685 MB
Программы [Контакты] Talklog: контроль телефонных звонков и sms [Android 2.0+, RUS] TorrentFilm 30 KB
Программы [Система] Accu-Chek 360 - система для контроля и анализа уровня глюкозы крови v.1.0.1.3 [Android 2.2+, RUS + ENG] TorrentFilm 2 MB
R.G.TorrentFilm Video В поисках золотого фаллоса / Контрабандист (Себастьян Аларкон) [1992 г., Комедия, криминал, SATRip] Один 777 747 MB
Разная литература Виктор Суворов | Контроль (2014) [FB2, EPUB] достали все 2 MB
Фантастика, фэнтези Владимир Контровский - Собрание сочинений (157 книг) [2013, Фантастика, Фэнтези, История, Военная история, FB2, DOC, RTF] Garik014 86 MB
Компьютерная литература (Программирование) Дюгуров Д.В. - Управление контроллером домена. Упражнения и задачи [2012, PDF, RUS] TorrentFilm 812 KB
Показать сообщения:    

Текущее время: Сегодня 14:39

Часовой пояс: GMT



Вы не можете начинать темы
Вы не можете отвечать на сообщения
Вы не можете редактировать свои сообщения
Вы не можете удалять свои сообщения
Вы не можете голосовать в опросах
Вы не можете прикреплять файлы к сообщениям
Вы не можете скачивать файлы