Континуум / Project Almanac (Дин Израэлайт / Dean Israelite) [2015, США, фантастика, триллер, BDRip-AVC] Dub + Original (Eng) + Subs (Rus, Eng)

 
Автор Сообщение

TorrentFilm ®

Пол:

Стаж: 2 года

Сообщений: 7741



Награды: Нет

Торрент-статистика

Создавать темы 08-Июл-2015 00:07

[Цитировать]

Континуум / Project Almanac
«Вчера будет весело»
- Страна: США
Жанр: фантастика, триллер
Год выпуска: 2015
Продолжительность: 01:46:12-Перевод: Профессиональный (полное дублирование)
Оригинальная аудиодорожка: English
Cубтитры: Русские (полные BD + полные iTunes + форсированные), English (full + full SDH + full SDH Colored)
Навигация по главам: присутствует - 15 глав-Режиссер: Дин Израэлайт / Dean Israelite
В ролях: Джонни Уэстон, София Блэк-Д’Элиа, Сэм Лернер, Аллен Евангелиста, Вирджиния Гарднер, Эми Ландекер, Гари Викс, Максен Линтц, Гэри Граббс, Мишель ДеФрайтс-Описание: Однажды после просмотра старой пленки со дня рождения уже взрослый именинник заметил себя «настоящего» в отражении на видео. Съедаемые любопытством, друзья нашли чертежи таинственного устройства, похожего на машину времени. Они решили доделать ее и испробовать, чтобы вернуться в прошлое и исправить некоторые ошибки.
Но что будет, если группа отвязных тинейджеров случайно завладеет машиной времени? Однозначно, будет весело! Пока кто-то не нарушит правила, и веселая шутка не обернется кошмаром. Надо торопиться восстановить континуум, пока мир окончательно не разрушен!-
Download sample-Качество видео: BDRip-AVC | исх. Blu-ray disc 1080p - thx: crazy_gringo
Формат: MKV-Видео: 1 152x480 (2.40:1), 23.976 fps, H.264 ~4 500 kbps avg, 0.332 bit/pixel
Аудио №1: 48.0 kHz, AC3 Dolby Digital, 3/2 (L,C,R,l,r) + LFE ch, ~448 kbps | Профессиональный (полное дублирование)
Аудио №2: 48.0 kHz, AC3 Dolby Digital, 3/2 (L,C,R,l,r) + LFE ch, ~448 kbps | English
Субтитры №1: Русские (полные BD) | *.srt
Субтитры №2: Русские (полные iTunes) | *.srt
Субтитры №3: Русские (форсированные) | *.srt
Субтитры №4: English (full) | *.srt
Субтитры №5: English (full SDH) | *.srt
Субтитры №6: English (full SDH Colored) | *.srt-

MediaInfo

General
Unique ID : 220145194509936519856759223672504387951 (0xA59E6C16BD16B7338A954EA2D571096F)
Complete name : D:\Фильмы\Рипы\Project Almanac.2015.BDRip-AVC.eFK tRuAVC.mkv
Format : Matroska
Format version : Version 4 / Version 2
File size : 4.01 GiB
Duration : 1h 46mn
Overall bit rate : 5 405 Kbps
Movie name : Континуум / Project Almanac (2015) - Release for rutracker
Encoded date : UTC 2015-07-04 11:53:24
Writing application : mkvmerge v7.6.0 ('Garden of Dreams') 64bit built on Feb 8 2015 13:04:34
Writing library : libebml v1.3.1 + libmatroska v1.4.2
Attachements : cover.png
DURATION : 01:40:28.480000000
NUMBER_OF_FRAMES : 2358
NUMBER_OF_BYTES : 108491
_STATISTICS_WRITING_APP : mkvmerge v7.6.0 ('Garden of Dreams') 64bit built on Feb 8 2015 13:04:34
_STATISTICS_WRITING_DATE_UT : 2015-07-04 11:53:24
_STATISTICS_TAGS : BPS DURATION NUMBER_OF_FRAMES NUMBER_OF_BYTES
Video
ID : 1
Format : AVC
Format/Info : Advanced Video Codec
Format profile : High@L4.1
Format settings, CABAC : Yes
Format settings, ReFrames : 14 frames
Codec ID : V_MPEG4/ISO/AVC
Duration : 1h 46mn
Bit rate : 4 401 Kbps
Width : 1 152 pixels
Height : 480 pixels
Display aspect ratio : 2.40:1
Frame rate mode : Constant
Frame rate : 23.976 fps
Color space : YUV
Chroma subsampling : 4:2:0
Bit depth : 8 bits
Scan type : Progressive
Bits/(Pixel*Frame) : 0.332
Stream size : 3.27 GiB (81%)
Title : eFK tRuAVC
Writing library : x264 core 146 r2538kMod 121396c
Encoding settings : cabac=1 / ref=14 / deblock=1:-3:-3 / analyse=0x3:0x133 / me=umh / subme=11 / psy=1 / fade_compensate=0.00 / psy_rd=1.05:0.00 / mixed_ref=1 / me_range=48 / chroma_me=1 / trellis=2 / 8x8dct=1 / cqm=0 / deadzone=21,11 / fast_pskip=0 / chroma_qp_offset=-2 / threads=12 / lookahead_threads=3 / sliced_threads=0 / nr=0 / decimate=1 / interlaced=0 / bluray_compat=0 / constrained_intra=0 / fgo=0 / bframes=16 / b_pyramid=2 / b_adapt=2 / b_bias=0 / direct=3 / weightb=1 / open_gop=0 / weightp=2 / keyint=250 / keyint_min=23 / scenecut=40 / intra_refresh=0 / rc_lookahead=60 / rc=crf / mbtree=1 / crf=17.8000 / qcomp=0.65 / qpmin=0 / qpmax=69 / qpstep=4 / vbv_maxrate=50000 / vbv_bufsize=62500 / crf_max=0.0 / nal_hrd=none / filler=0 / ip_ratio=1.40 / aq=3:0.90
Language : English
Default : Yes
Forced : No
Color primaries : BT.709
Transfer characteristics : BT.709
Matrix coefficients : BT.709
Color range : Limited
DURATION : 01:46:12.783000000
NUMBER_OF_FRAMES : 152794
NUMBER_OF_BYTES : 3588480779
_STATISTICS_WRITING_APP : mkvmerge v7.6.0 ('Garden of Dreams') 64bit built on Feb 8 2015 13:04:34
_STATISTICS_WRITING_DATE_UT : 2015-07-04 11:53:24
_STATISTICS_TAGS : BPS DURATION NUMBER_OF_FRAMES NUMBER_OF_BYTES
Audio #1
ID : 2
Format : AC-3
Format/Info : Audio Coding 3
Mode extension : CM (complete main)
Format settings, Endianness : Big
Codec ID : A_AC3
Duration : 1h 46mn
Bit rate mode : Constant
Bit rate : 448 Kbps
Channel(s) : 6 channels
Channel positions : Front: L C R, Side: L R, LFE
Sampling rate : 48.0 KHz
Bit depth : 16 bits
Compression mode : Lossy
Stream size : 340 MiB (8%)
Title : Dub
Language : Russian
Default : Yes
Forced : No
Audio #2
ID : 3
Format : AC-3
Format/Info : Audio Coding 3
Mode extension : CM (complete main)
Format settings, Endianness : Big
Codec ID : A_AC3
Duration : 1h 46mn
Bit rate mode : Constant
Bit rate : 448 Kbps
Channel(s) : 6 channels
Channel positions : Front: L C R, Side: L R, LFE
Sampling rate : 48.0 KHz
Bit depth : 16 bits
Compression mode : Lossy
Stream size : 340 MiB (8%)
Language : English
Default : No
Forced : No
Text #1
ID : 4
Format : UTF-8
Codec ID : S_TEXT/UTF8
Codec ID/Info : UTF-8 Plain Text
Title : полные BD
Language : Russian
Default : No
Forced : No
Text #2
ID : 5
Format : UTF-8
Codec ID : S_TEXT/UTF8
Codec ID/Info : UTF-8 Plain Text
Title : полные iTunes
Language : Russian
Default : No
Forced : No
Text #3
ID : 6
Format : UTF-8
Codec ID : S_TEXT/UTF8
Codec ID/Info : UTF-8 Plain Text
Title : форсированные
Language : Russian
Default : Yes
Forced : No
Text #4
ID : 7
Format : UTF-8
Codec ID : S_TEXT/UTF8
Codec ID/Info : UTF-8 Plain Text
Title : full BD
Language : English
Default : No
Forced : No
Text #5
ID : 8
Format : UTF-8
Codec ID : S_TEXT/UTF8
Codec ID/Info : UTF-8 Plain Text
Title : full SDH
Language : English
Default : No
Forced : No
Text #6
ID : 9
Format : UTF-8
Codec ID : S_TEXT/UTF8
Codec ID/Info : UTF-8 Plain Text
Title : full SDH colored
Language : English
Default : No
Forced : No
Menu
00:00:00.000 : en:Chapter 01
00:07:56.309 : en:Chapter 02
00:15:20.210 : en:Chapter 03
00:23:49.803 : en:Chapter 04
00:31:15.665 : en:Chapter 05
00:39:19.273 : en:Chapter 06
00:46:58.273 : en:Chapter 07
00:54:11.957 : en:Chapter 08
01:00:55.485 : en:Chapter 09
01:09:43.304 : en:Chapter 10
01:16:24.371 : en:Chapter 11
01:23:07.732 : en:Chapter 12
01:32:20.618 : en:Chapter 13
01:41:19.323 : en:Chapter 14
01:46:12.532 : en:Chapter 15

x264 log

x264 [info]: frame I:696 Avg QP:14.22 size: 91344
x264 [info]: frame P:39997 Avg QP:18.70 size: 37222
x264 [info]: frame B:112101 Avg QP:20.36 size: 18164
x264 [info]: consecutive B-frames: 4.9% 5.9% 13.1% 20.7% 17.5% 27.9% 3.7% 1.2% 1.0% 0.9% 0.6% 0.5% 0.3% 0.5% 0.4% 0.2% 0.6%
x264 [info]: mb I I16..4: 9.8% 71.3% 18.9%
x264 [info]: mb P I16..4: 0.9% 17.3% 1.6% P16..4: 27.7% 33.7% 11.5% 1.7% 0.1% skip: 5.4%
x264 [info]: mb B I16..4: 0.1% 4.7% 0.2% B16..8: 36.1% 20.5% 4.2% direct: 5.9% skip:28.3% L0:43.7% L1:44.8% BI:11.4%
x264 [info]: 8x8 transform intra:89.0% inter:64.4%
x264 [info]: direct mvs spatial:99.8% temporal:0.2%
x264 [info]: coded y,uvDC,uvAC intra: 92.5% 83.1% 57.0% inter: 34.8% 29.0% 8.4%
x264 [info]: i16 v,h,dc,p: 31% 19% 6% 43%
x264 [info]: i8 v,h,dc,ddl,ddr,vr,hd,vl,hu: 7% 7% 10% 10% 14% 13% 14% 11% 13%
x264 [info]: i4 v,h,dc,ddl,ddr,vr,hd,vl,hu: 8% 8% 5% 8% 17% 15% 15% 11% 13%
x264 [info]: i8c dc,h,v,p: 36% 26% 17% 21%
x264 [info]: Weighted P-Frames: Y:4.4% UV:3.6%
x264 [info]: ref P L0: 45.5% 9.8% 15.8% 6.2% 5.0% 3.7% 3.3% 1.9% 1.8% 1.5% 1.5% 1.2% 1.3% 1.2% 0.4% 0.0%
x264 [info]: ref B L0: 72.3% 11.3% 5.5% 2.8% 2.0% 1.6% 1.3% 0.8% 0.7% 0.6% 0.6% 0.4% 0.2%
x264 [info]: ref B L1: 92.8% 7.2%
x264 [info]: kb/s:4504.76
x264 [total]: encoded 152794 frames, 6.16 fps, 4504.76 kb/s, duration 6:53:34.15
ComparisonSource

Encode
http://torrentfilm.net/forum/viewtopic.php?t=5033138 http://screenshotcomparison.com/comparison/133681
  • За субтитры спасибо xAlhimx
[Профиль] [ЛС]
Кто просматривает тему:

Форум Тема Автор Размер
BBC BBC: Большое железнодорожное путешествие по континенту / Great Continental Railway Journeys [сезон 4 серии 1-6 из 6] (Dave Minchin) [2015 г., Документальный, история, путешествия, HDTVRip 720p] skorpionN 8.85 GB
National Geographic NG: Седьмой континент: Антарктида / Continent 7: Antarctica [сезон 1 серии 1-3 из 6] (Todd Hermann) [2016 г., Документальный, научно-популярный, ислледования, HDTVRip 720p] skorpionN 5.05 GB
Разное Биатлон. Чемпионат Мира 2015. Контиолахти (Финляндия). Женщины. Индивидуальная гонка 15 км [11.03] (2015) HDTVRip 720p sergej644 3.54 GB
Разное Биатлон. Чемпионат Мира 2015. Контиолахти (Финляндия). Мужчины. Масс-старт 15 км [15.03] (2015) HDTV 1080i sergej644 4.15 GB
Разное Биатлон. Чемпионат Мира 2015. Контиолахти (Финляндия). Мужчины. Масс-старт 15 км [15.03] (2015) HDTVRip 720р sergej644 1016 MB
Телепередачи Большие гонки. Битва континентов [01-05] (2014) HDTVRip 720p от HitWay Белочка 8.34 GB
Телепередачи Большие гонки. Битва континентов [01-09] (2014) HDTVRip от MediaClub sergej644 9.7 GB
Телепередачи Большие гонки. Битва континентов [01-11] (2014) HDTVRip от MediaClub sergej644 11.92 GB
Показать сообщения:    

Текущее время: Сегодня 10:34

Часовой пояс: GMT



Вы не можете начинать темы
Вы не можете отвечать на сообщения
Вы не можете редактировать свои сообщения
Вы не можете удалять свои сообщения
Вы не можете голосовать в опросах
Вы не можете прикреплять файлы к сообщениям
Вы не можете скачивать файлы