Континуум / Project Almanac (Дин Израэлайт / Dean Israelite) [2015 г., США, фантастика, триллер, HDRip] Dub

 
Автор Сообщение

TorrentFilm ®

Пол:

Стаж: 2 года

Сообщений: 7741



Награды: Нет

Торрент-статистика

Создавать темы 02-Июл-2015 00:09

[Цитировать]

-Континуум / Project Almanac--Год выпуска: 2015Страна: СШАЖанр: фантастика, триллер-Продолжительность: 01:46:12Перевод: Профессиональный (дублированный) [лицензия]Субтитры: нет--Режиссер:Дин Израэлайт / Dean Israelite-В ролях:Джонни Уэстон, София Блэк-Д’Элиа, Сэм Лернер, Аллен Евангелиста, Вирджиния Гарднер, Эми Ландекер, Гари Викс, Максен Линтц, Гэри Граббс, Мишель ДеФрайтс...-Описание:
Однажды после просмотра старой пленки со дня рождения уже взрослый именинник заметил себя «настоящего» в отражении на видео. Съедаемые любопытством, друзья нашли чертежи таинственного устройства, похожего на машину времени. Они решили доделать ее и испробовать, чтобы вернуться в прошлое и исправить некоторые ошибки.
Но что будет, если группа отвязных тинейджеров случайно завладеет машиной времени? Однозначно, будет весело! Пока кто-то не нарушит правила, и веселая шутка не обернется кошмаром. Надо торопиться восстановить континуум, пока мир окончательно не разрушен!
--Дополнительная информация:- -Сэмпл Рип совместим с бытовыми DVD-проигрывателями.--Качество видео: HDRip (Исходник: BDRip 1080p)
Формат видео: AVI
Видео: XviD build 73, 656x272 (2.4:1), 23.976 fps, ~845 kbps avg, 0.197 bit/pixel
Аудио: MPEG Layer 3, 2 ch, 48 kHz, 128 kbps avg (Dub)-

Скриншоты



Скриншот с названием

MediaInfo

General
Complete name :\Kontinuum_(2015).HDRip.mp3.Dub_[All.Films][RG].avi
Format : AVI
Format/Info : Audio Video Interleave
File size : 746 MiB
Duration : 1h 46mn
Overall bit rate : 982 Kbps
Movie name : Континуум / Project Almanac (2015) HDRip Dub | [All.Films][RG].avi
Director : [torrentfilm.net]
Writing application : VirtualDubMod 1.5.10.3 | www.virtualdub-fr.org || (build 2550/release)
Copyright : [torrentfilm.net]
Video
ID : 0
Format : MPEG-4 Visual
Format profile : Advanced Simple@L5
Format settings, BVOP : 2
Format settings, QPel : No
Format settings, GMC : No warppoints
Format settings, Matrix : Custom
Codec ID : XVID
Codec ID/Hint : XviD
Duration : 1h 46mn
Bit rate : 845 Kbps
Width : 656 pixels
Height : 272 pixels
Display aspect ratio : 2.40:1
Frame rate : 23.976 fps
Color space : YUV
Chroma subsampling : 4:2:0
Bit depth : 8 bits
Scan type : Progressive
Compression mode : Lossy
Bits/(Pixel*Frame) : 0.197
Stream size : 642 MiB (86%)
Writing library : XviD 73
Audio
ID : 1
Format : MPEG Audio
Format version : Version 1
Format profile : Layer 3
Codec ID : 55
Codec ID/Hint : MP3
Duration : 1h 46mn
Bit rate mode : Constant
Bit rate : 128 Kbps
Channel(s) : 2 channels
Sampling rate : 48.0 KHz
Compression mode : Lossy
Stream size : 97.2 MiB (13%)
Alignment : Aligned on interleaves
Interleave, duration : 42 ms (1.00 video frame)
Interleave, preload duratio : 504 ms
Writing library : LAME3.99r
Encoding settings : -m s -V 4 -q 0 -lowpass 17 -b 128
[Профиль] [ЛС]
Кто просматривает тему:

Форум Тема Автор Размер
BBC BBC: Большое железнодорожное путешествие по континенту / Great Continental Railway Journeys [сезон 4 серии 1-6 из 6] (Dave Minchin) [2015 г., Документальный, история, путешествия, HDTVRip 720p] skorpionN 8.85 GB
National Geographic NG: Седьмой континент: Антарктида / Continent 7: Antarctica [сезон 1 серии 1-3 из 6] (Todd Hermann) [2016 г., Документальный, научно-популярный, ислледования, HDTVRip 720p] skorpionN 5.05 GB
Разное Биатлон. Чемпионат Мира 2015. Контиолахти (Финляндия). Женщины. Индивидуальная гонка 15 км [11.03] (2015) HDTVRip 720p sergej644 3.54 GB
Разное Биатлон. Чемпионат Мира 2015. Контиолахти (Финляндия). Мужчины. Масс-старт 15 км [15.03] (2015) HDTV 1080i sergej644 4.15 GB
Разное Биатлон. Чемпионат Мира 2015. Контиолахти (Финляндия). Мужчины. Масс-старт 15 км [15.03] (2015) HDTVRip 720р sergej644 1016 MB
Телепередачи Большие гонки. Битва континентов [01-05] (2014) HDTVRip 720p от HitWay Белочка 8.34 GB
Телепередачи Большие гонки. Битва континентов [01-09] (2014) HDTVRip от MediaClub sergej644 9.7 GB
Телепередачи Большие гонки. Битва континентов [01-11] (2014) HDTVRip от MediaClub sergej644 11.92 GB
Показать сообщения:    

Текущее время: Сегодня 22:10

Часовой пояс: GMT



Вы не можете начинать темы
Вы не можете отвечать на сообщения
Вы не можете редактировать свои сообщения
Вы не можете удалять свои сообщения
Вы не можете голосовать в опросах
Вы не можете прикреплять файлы к сообщениям
Вы не можете скачивать файлы