Континуум / Project Almanac (2014) WEB-DL 1080p | Звук с TS

 
Автор Сообщение

достали все ®

Пол:

Стаж: 1 год 8 месяцев

Сообщений: 6563



Награды: 12 (Подробнее)

Top Releaser 3 (Количество: 1) Top Releaser 2 (Количество: 1) Mega Releaser 2 (Количество: 1)
Торрент-статистика

Создавать темы 13-Май-2015 09:22

[Цитировать]

Информация о фильме
Название: Континуум
Оригинальное название: Project Almanac
Год выхода: 2014
Жанр: фантастика, триллер
Режиссер: Дин Израэлайт
В ролях: Джонни Уэстон, София Блэк-Д'Элиа, Сэм Лернер, Аллен Евангелиста, Эми Ландекер, Гари Викс, Максен Линтц, Гэри Граббс, Мишель ДеФрайтс, Карри Стоун
О фильме: Однажды после просмотра старой пленки со дня рождения уже взрослый именинник заметил себя «настоящего» в отражении на видео. Съедаемые любопытством, друзья нашли чертежи таинственного устройства, похожего на машину времени. Они решили доделать ее и испробовать, чтобы вернуться в прошлое и исправить некоторые ошибки.
Но что будет, если группа отвязных тинейджеров случайно завладеет машиной времени? Однозначно, будет весело! Пока кто-то не нарушит правила, и веселая шутка не обернется кошмаром. Надо торопиться восстановить континуум, пока мир окончательно не разрушен!

Выпущено: США / Insurge Pictures, MTV Films, Paramount Pictures
Продолжительность: 01:46:12
Озвучивание: Дублированное [звук с TS]
Файл
Формат: MKV (x264)
Качество: WEB-DL 1080p
Видео: 4441 kb/s, 1912x796
Аудио: Russian: MP3, 128 kb/s (2 ch) / English: AC3, 448 kb/s (6 ch)
Размер: 3.80 GB
Скачать: Сэмпл---

Media Info

Общее
Уникальный идентификатор : 196146859271411030508462258940566051842 (0x939082CF60AE4AB5BF37F6B2BEE01C02)
Полное имя : Kontinuum.2014.Dt.WEB-DL.1080p.nnm-club.mkv
Формат : Matroska
Версия формата : Version 4 / Version 2
Размер файла : 3,80 Гбайт
Продолжительность : 1 ч. 46 м.
Общий поток : 5119 Кбит/сек
Дата кодирования : UTC 2015-05-12 17:51:33
Программа кодирования : mkvmerge v7.6.0 ('Garden of Dreams') 32bit built on Feb 8 2015 12:51:39
Библиотека кодирования : libebml v1.3.1 + libmatroska v1.4.2
Attachements : cover_land.jpg / small_cover.jpg / small_cover_land.jpg / cover.jpg
DURATION : 01:46:12.816000000
NUMBER_OF_FRAMES : 265534
NUMBER_OF_BYTES : 101965056
_STATISTICS_WRITING_APP : mkvmerge v7.6.0 ('Garden of Dreams') 32bit built on Feb 8 2015 12:51:39
_STATISTICS_WRITING_DATE_UTC : 2015-05-12 17:51:33
_STATISTICS_TAGS : BPS DURATION NUMBER_OF_FRAMES NUMBER_OF_BYTES
Видео
Идентификатор : 1
Формат : AVC
Формат/Информация : Advanced Video Codec
Профиль формата : High@L4.0
Параметр CABAC формата : Да
Параметр ReFrames формата : 5 кадров
Идентификатор кодека : V_MPEG4/ISO/AVC
Продолжительность : 1 ч. 46 м.
Битрейт : 4441 Кбит/сек
Ширина : 1912 пикселей
Высота : 796 пикселей
Соотношение сторон : 2,40:1
Режим частоты кадров : Постоянный
Частота кадров : 23,976 кадра/сек
Цветовое пространство : YUV
Субдискретизация насыщенности : 4:2:0
Битовая глубина : 8 бит
Тип развёртки : Прогрессивная
Бит/(Пиксели*Кадры) : 0.122
Размер потока : 3,30 Гбайт (87%)
Заголовок : Project.Almanac.2014.1080p.WEB-DL.DD5.1.H264-RARBG
Язык : English
Default : Да
Forced : Нет
Основные цвета : BT.709
Характеристики трансфера : BT.709
Коэффициенты матрицы : BT.709
colour_range : Limited
Аудио #1
Идентификатор : 2
Формат : MPEG Audio
Версия формата : Version 1
Профиль формата : Layer 3
Режим : Joint stereo
Расширение режима : MS Stereo
Идентификатор кодека : A_MPEG/L3
Идентификатор кодека/Подсказка : MP3
Продолжительность : 1 ч. 46 м.
Вид битрейта : Постоянный
Битрейт : 128 Кбит/сек
Каналы : 2 канала
Частота : 48,0 КГц
Метод сжатия : С потерями
Размер потока : 97,4 Мбайт (3%)
Язык : Russian
Default : Да
Forced : Нет
Аудио #2
Идентификатор : 3
Формат : AC-3
Формат/Информация : Audio Coding 3
Расширение режима : CM (complete main)
Параметр Endianness формата : Big
Идентификатор кодека : A_AC3
Продолжительность : 1 ч. 46 м.
Вид битрейта : Постоянный
Битрейт : 448 Кбит/сек
Каналы : 6 каналов
Расположение каналов : Front: L C R, Side: L R, LFE
Частота : 48,0 КГц
Битовая глубина : 16 бит
Метод сжатия : С потерями
Размер потока : 341 Мбайт (9%)
Заголовок : Project.Almanac.2014.1080p.WEB-DL.DD5.1.H264-RARBG
Default : Нет
Forced : Нет
--- --- -

Скриншоты

-
[Профиль] [ЛС]
Кто просматривает тему:

Форум Тема Автор Размер
BBC BBC: Большое железнодорожное путешествие по континенту / Great Continental Railway Journeys [сезон 4 серии 1-6 из 6] (Dave Minchin) [2015 г., Документальный, история, путешествия, HDTVRip 720p] skorpionN 8.85 GB
National Geographic NG: Седьмой континент: Антарктида / Continent 7: Antarctica [сезон 1 серии 1-2 из 6] (Todd Hermann) [2016 г., Документальный, научно-популярный, ислледования, HDTVRip 720p] skorpionN 3.37 GB
Разное Биатлон. Чемпионат Мира 2015. Контиолахти (Финляндия). Женщины. Индивидуальная гонка 15 км [11.03] (2015) HDTVRip 720p sergej644 3.54 GB
Разное Биатлон. Чемпионат Мира 2015. Контиолахти (Финляндия). Мужчины. Масс-старт 15 км [15.03] (2015) HDTV 1080i sergej644 4.15 GB
Разное Биатлон. Чемпионат Мира 2015. Контиолахти (Финляндия). Мужчины. Масс-старт 15 км [15.03] (2015) HDTVRip 720р sergej644 1016 MB
Телепередачи Большие гонки. Битва континентов [01-05] (2014) HDTVRip 720p от HitWay Белочка 8.34 GB
Телепередачи Большие гонки. Битва континентов [01-09] (2014) HDTVRip от MediaClub sergej644 9.7 GB
Телепередачи Большие гонки. Битва континентов [01-11] (2014) HDTVRip от MediaClub sergej644 11.92 GB
Показать сообщения:    

Текущее время: Сегодня 08:34

Часовой пояс: GMT



Вы не можете начинать темы
Вы не можете отвечать на сообщения
Вы не можете редактировать свои сообщения
Вы не можете удалять свои сообщения
Вы не можете голосовать в опросах
Вы не можете прикреплять файлы к сообщениям
Вы не можете скачивать файлы