Контакт / The Encounter (2015) BDRip 1080p | L1

 
Автор Сообщение

достали все ®

Пол:

Стаж: 1 год 8 месяцев

Сообщений: 6565



Награды: 12 (Подробнее)

Mega Seeder 3 (Количество: 1) Top Releaser 4 (Количество: 1) Mega Releaser 3 (Количество: 1)
Торрент-статистика

Создавать темы 17-Фев-2016 06:49

[Цитировать]

Информация о фильме
Название: Контакт
Оригинальное название: The Encounter
Год выхода: 2015
Жанр: Ужасы, фантастика
Режиссер: Роберт Конуэй
В ролях: Клинт Джеймс, Оуэн Конуэй, Меган Драст, Элиза Кишш, Полина Валлен, Луи Иаккарино, Дэн Хиггинс, Моника Энгессер, Пэт Кэй
О фильме:
Рядом с городом в лесу упал метеорит. Окружающие даже не представляют какие ужасные события развернутся уже скоро...

Выпущено: США / FunHouse Features
Продолжительность: 01:20:13
Перевод: Любительский одноголосый [Васька Куролесов]
Файл
Формат: MKV
Качество: BDRip 1080p
Видео: MPEG-4 AVC, 8690 Кбит/с, 1920x1080
Аудио: Русский (AC3, 2 ch, 256 Кбит/c), английский (DTS, 6 ch, 1509 Кбит/с)

MI

Общее
Уникальный идентификатор : 202802331717348134955498688248574995560 (0x98924EEFABF257DFBC764B8743C56C68)
Полное имя : F:Раздача HDKontakt.2015.BDRip 1080p.mkv
Формат : Matroska
Версия формата : Version 2
Размер файла : 5,86 Гбайт
Продолжительность : 1 ч. 20 м.
Общий поток : 10,4 Мбит/сек
Название фильма : Контакт / The Encounter.2015.BDRip 1080p
Дата кодирования : UTC 2016-02-16 19:09:31
Программа кодирования : mkvmerge v5.8.0 ('No Sleep / Pillow') built on Sep 2 2012 15:37:04
Библиотека кодирования : libebml v1.2.3 + libmatroska v1.3.0
Обложка : Yes / Yes / Yes / Yes
Видео
Идентификатор : 1
Формат : AVC
Формат/Информация : Advanced Video Codec
Профиль формата : High@L4.1
Параметр CABAC формата : Да
Параметр ReFrames формата : 4 кадра
Идентификатор кодека : V_MPEG4/ISO/AVC
Продолжительность : 1 ч. 20 м.
Битрейт : 8690 Кбит/сек
Ширина : 1920 пикселей
Высота : 1080 пикселей
Соотношение сторон : 16:9
Режим частоты кадров : Постоянный
Частота кадров : 23,976 кадра/сек
Цветовое пространство : YUV
Субдискретизация насыщенности : 4:2:0
Битовая глубина : 8 бит
Тип развёртки : Прогрессивная
Бит/(Пиксели*Кадры) : 0.175
Размер потока : 4,75 Гбайт (81%)
Библиотека кодирования : x264 core 148 r2665 a01e339
Настройки программы : cabac=1 / ref=4 / deblock=1:-1:-1 / analyse=0x3:0x133 / me=umh / subme=7 / psy=1 / psy_rd=1.00:0.15 / mixed_ref=1 / me_range=16 / chroma_me=1 / trellis=1 / 8x8dct=1 / cqm=0 / deadzone=21,11 / fast_pskip=0 / chroma_qp_offset=-3 / threads=8 / lookahead_threads=1 / sliced_threads=0 / nr=0 / decimate=1 / interlaced=0 / bluray_compat=0 / constrained_intra=0 / bframes=3 / b_pyramid=2 / b_adapt=1 / b_bias=0 / direct=1 / weightb=1 / open_gop=0 / weightp=2 / keyint=250 / keyint_min=23 / scenecut=40 / intra_refresh=0 / rc_lookahead=40 / rc=2pass / mbtree=1 / bitrate=8690 / ratetol=1.0 / qcomp=0.60 / qpmin=0 / qpmax=69 / qpstep=4 / cplxblur=20.0 / qblur=0.5 / ip_ratio=1.40 / aq=1:1.00
Default : Да
Forced : Нет
Аудио #1
Идентификатор : 2
Формат : AC-3
Формат/Информация : Audio Coding 3
Расширение режима : CM (complete main)
Параметр Endianness формата : Big
Идентификатор кодека : A_AC3
Продолжительность : 1 ч. 20 м.
Вид битрейта : Постоянный
Битрейт : 256 Кбит/сек
Каналы : 2 канала
Расположение каналов : Front: L R
Частота : 48,0 КГц
Битовая глубина : 16 бит
Метод сжатия : С потерями
Размер потока : 147 Мбайт (2%)
Заголовок : VO [Васька Куролесов]
Язык : Russian
Default : Да
Forced : Нет
Аудио #2
Идентификатор : 3
Формат : DTS
Формат/Информация : Digital Theater Systems
Режим : 16
Параметр Endianness формата : Big
Идентификатор кодека : A_DTS
Продолжительность : 1 ч. 20 м.
Вид битрейта : Постоянный
Битрейт : 1509 Кбит/сек
Каналы : 6 каналов
Расположение каналов : Front: L C R, Side: L R, LFE
Частота : 48,0 КГц
Битовая глубина : 16 бит
Метод сжатия : С потерями
Размер потока : 866 Мбайт (14%)
Язык : English
Default : Нет
Forced : Нет
Меню
00:00:00.000 : en:00:00:00.000
00:05:17.859 : en:00:05:17.859
00:11:40.074 : en:00:11:40.074
00:17:01.854 : en:00:17:01.854
00:23:30.367 : en:00:23:30.367
00:30:44.634 : en:00:30:44.634
00:38:21.758 : en:00:38:21.758
00:46:41.298 : en:00:46:41.298
00:55:30.285 : en:00:55:30.285
01:02:22.739 : en:01:02:22.739
01:09:05.141 : en:01:09:05.141
01:16:42.723 : en:01:16:42.723

О релизе

Перевод: Любительский (одноголосый) Васька Куролесов по субтитрам Enigma

Скриншоты

[Профиль] [ЛС]
Показать сообщения:    

Текущее время: Сегодня 12:31

Часовой пояс: GMT



Вы не можете начинать темы
Вы не можете отвечать на сообщения
Вы не можете редактировать свои сообщения
Вы не можете удалять свои сообщения
Вы не можете голосовать в опросах
Вы не можете прикреплять файлы к сообщениям
Вы не можете скачивать файлы