Консультант [1 сезон, 1-10 из 10] (2016) HDTVRip

 
Author Message

Pensioner ®

Longevity: 3 years 4 months

Posts: 514

Location: Казахстан



: 5 ()

За внесенный вклад в развитие сайта (1) Mega Seeder 1 (1) Mega Seeder 2 (1)
Торрент-статистика

Post 04-Apr-2017 05:38

[Quote]

Консультант Оригинальное название: Консультант
Год выпуска: 2016
Жанр: Детектив, триллер
Страна: Россия,
Выпущено: Киностудия Кит по заказу НТВ
Режиссер: Алексей Рудаков
В ролях: Кирилл Кяро, Максим Дрозд, Светлана Иванова, Елена Великанова, Анастасия Чистякова, Иван Рудаков, Екатерина Вуличенко, Дмитрий Поднозов, Наталья Ткаченко, Владимир Матвеев, Фёдор Лавров, Алексей Байдаков, Сергей Барковский, Владимир Богданов, Юрий Ицков, Александр Большаков, Андрей Мокеев, Олег Фёдоров, Илья Борисов, Сергей Кузнецов, Павел Григорьев, Олег Куликович, Даниил Кокин, Наталья Щукина, Константин Демидов, Екатерина Унтилова, Ольга Онищенко, Наталья Парашкина
О фильме: Виктор, Антон и Степан – олицетворение настоящей мужской дружбы. Ребят очень сблизила война в Чечне. Именно в этих сложных обстоятельствах стало возможным отличить настоящую дружбу от притворства, почувствовать надежное товарищеское плечо, понять, что такое братство спецназовцев. Это еще больше объединяет трех друзей, и они решают открыть свой автосалон. Честный бизнес идет в гору, но тут на горизонте появляется циничный бандит Македонский (Виктор Вержбицкий). Ему не нравится, что он не получает ничего от такого доходного предприятия. Молодые люди отказываются платить ему «дань» и тут в их жизни начинается новая война. Помимо этого, у каждого из ребят возникают сложности в личной жизни. Картина о том, что такие вещи как настоящая дружба, честь, патриотизм – совсем не архаизм. Именно объединившись, доверяя друг другу, людям легче бороться с жизненными неприятностями и выйти победителями из любой, даже самой сложной ситуации.
Качество: HDTVRip
Видео: XviD, ~ 1650 Кбит/с, 720x400
Аудио: AC3, 2 ch, 192 Кбит/с
Продолжительность: 10 x ~ 00:45:00
Язык: Русский

MediaInfo:

Общее
Полное имя : D:\моё видио\Konsultant.2016.HDTVRip.Files-x\01.Konsultant.2016.HDTVRip.Files-x.avi
Формат : AVI
Формат/Информация : Audio Video Interleave
Размер файла : 599 Мбайт
Продолжительность : 48 м.
Общий поток : 1740 Кбит/сек
Программа кодирования : VirtualDubMod 1.5.10.3 | www.virtualdub-fr.org || (build 2550/release)
Библиотека кодирования : VirtualDubMod build 2550/release
Видео
Идентификатор : 0
Формат : MPEG-4 Visual
Профиль формата : Advanced Simple@L5
Параметр BVOP формата : 1
Параметр QPel формата : Нет
Параметр GMC формата : Без точки перехода
Параметр матрицы формата : Выборочная
Идентификатор кодека : XVID
Идентификатор кодека/Подсказка : XviD
Продолжительность : 48 м.
Битрейт : 1538 Кбит/сек
Ширина : 720 пикселей
Высота : 400 пикселей
Соотношение сторон : 16:9
Частота кадров : 25,000 кадров/сек
Цветовое пространство : YUV
Субдискретизация насыщенности : 4:2:0
Битовая глубина : 8 бит
Тип развёртки : Прогрессивная
Метод сжатия : С потерями
Бит/(Пиксели*Кадры) : 0.214
Размер потока : 529 Мбайт (88%)
Библиотека кодирования : XviD 73
Аудио
Идентификатор : 1
Формат : AC-3
Формат/Информация : Audio Coding 3
Расширение режима : CM (complete main)
Параметр Endianness формата : Big
Идентификатор кодека : 2000
Продолжительность : 48 м.
Вид битрейта : Постоянный
Битрейт : 192 Кбит/сек
Каналы : 2 канала
Расположение каналов : Front: L R
Частота : 48,0 КГц
Битовая глубина : 16 бит
Метод сжатия : С потерями
Размер потока : 66,1 Мбайт (11%)
Выравнивание : Разделение по промежуткам
Продолжительность промежутка : 40 мс. (1,00 видеокадр)
Время предзагрузки промежутка : 500 мс.
Отсутсвует реклама.

Внимание! Раздача ведётся путём добавления новых серий!

Внимание! Раздача ведётся путём добавления новых серий; при каждом добавлении создfётся новый торрент. Чтобы начать докачку новой серии, пользователям необходимо сделать следующее: (1) остановить скачивание, (2) удалить старый торрент у себя из клиента (старые серии удалять не надо), (3) скачать новый торрент и запустить его у себя в клиенте вместо старого, при этом указать клиенту путь в старую папку куда и должно происходить скачивание новых серий.
Ваш клиент при этом должен произвести хеширование (проверку) старой папки (если не производит сам - помогите ему сделать это), и будет докачивать только те серии которых у вас ещё нет. Старые серии при этом не удаляются, а продолжают раздаваться!
Eсли вы уже удалили старые серии, то предотвратить повторную закачку старых серий можно, отжав галочку в соответсвующих местах при запуске нового торрента.
Добавлены 1-10 серии.


Last edited by Pensioner on 2017-04-08 08:13; edited 3 times in total
[Profile] [PM]

Pensioner ®

Longevity: 3 years 4 months

Posts: 514

Location: Казахстан



: 5 ()

Top Releaser 2 (1) Mega Seeder 2 (1) Mega Seeder 1 (1)
Торрент-статистика

Post 08-Apr-2017 08:15 (after 4 days)

[Quote]

Добавлены 9-10 серии.
[Profile] [PM]
Display posts from previous:    

The time now is: Today 13:56

All times are GMT



You cannot post new topics in this forum
You cannot reply to topics in this forum
You cannot edit your posts in this forum
You cannot delete your posts in this forum
You cannot vote in polls in this forum
You cannot attach files in this forum
You cannot download files in this forum