Константин: Повелитель тьмы / Constantine (2005) BDRip 1080p

 
Автор Сообщение

Russian Mafia ®

Пол:

Стаж: 1 год 8 месяцев

Сообщений: 4257



Награды: 10 (Подробнее)

Mega Seeder 3 (Количество: 1) Mega Seeder 1 (Количество: 1) За внесенный вклад в развитие сайта (Количество: 1)
Торрент-статистика

Создавать темы 08-Сен-2015 04:43

[Цитировать]

Информация о фильме
Название: Константин: Повелитель тьмы
Оригинальное название: Constantine
Год выхода: 2005
Жанр: фэнтези, драма, детектив
Режиссер: Френсис Лоуренс
В ролях: Киану Ривз, Рейчел Вайс, Шайа ЛаБаф, Джимон Хунсу, Макс Бейкер, Прюитт Тэйлор Винс, Гэвин Россдэйл, Тильда Суинтон, Петер Стормаре, Джесси Рамирез
О фильме:
Джону Константину удалось не только побывать в аду, но и вернуться обратно. Родившись с неугодным самому себе талантом — способностью распознавать помесь ангелов и демонов, которые бродят по земле в облике людей, — Константин под давлением обстоятельств пытается совершить самоубийство, лишь бы избавиться от мучительных видений. Но неудачно. Воскрешенный против собственной воли он снова оказывается в мире живых.
Теперь, отмеченный печатью суицида и получивший временное право на жизнь, он патрулирует границу, разделяющую рай и ад, тщетно надеясь на обретение спасения путем сражения с земными ставленниками зла. Но и Константин не святой. Приходя всё в большее разочарование от окружающего мира, и будучи не в ладу с миром потусторонним, ожесточившись от тяжелой жизни, он начинает спиваться, с презрением относясь к самой идее героизма. Константин будет бороться за вашу душу, но ему не нужно ни ваше восхищение, ни ваша благодарность.
И уж меньше всего ваше сочувствие! Все, что ему нужно, — это найти выход… Когда отчаявшаяся, но не растерявшая свой скептицизм сотрудница полиции заручается поддержкой Константина для раскрытия загадочного самоубийства ее сестры-близнеца, расследование заводит их в мир демонов и ангелов, что находится в подземелье современного мегаполиса Лос-Анджелеса.
Попав в череду катастрофических событий иного мира, Константин и Анджела настолько увязают в них, что обретение мира и спокойствия любой ценой становится для них самой целью…

Выпущено: США, Германия
Продолжительность: 02:00:47
Перевод: Дублированный + Оригинал
Файл
Кодек: x264
Качество: BDRip 1080p
Видео: 1920x792, 7920 Kbps, 23.976 fps
Аудио #1: AC-3, 6 ch, 640 kbps (Rus)
Аудио #2: AC-3, 6 ch, 640 kbps (Eng)
Субтитры: русские, английские

Скриншоты

MI

Общее
Уникальный идентификатор : 183292117145632822729360389020806984462 (0x89E4C71738D9DD63862A6FE44FAAB30E)
Полное имя : Константин. Повелитель тьмы.2005.BDRip.1080p.Rus.Eng.mkv
Формат : Matroska
Версия формата : Version 4 / Version 2
Размер файла : 7,76 Гбайт
Продолжительность : 2 ч. 0 м.
Общий поток : 9197 Кбит/сек
Название фильма : Константин: Повелитель тьмы.2005
Дата кодирования : UTC 2013-03-28 15:11:20
Программа кодирования : mkvmerge v6.1.0 ('Old Devil') built on Mar 4 2013 09:10:42
Библиотека кодирования : libebml v1.3.0 + libmatroska v1.4.0
Видео
Идентификатор : 1
Формат : AVC
Формат/Информация : Advanced Video Codec
Профиль формата : High@L4.1
Параметр CABAC формата : Да
Параметр ReFrames формата : 5 кадров
Идентификатор кодека : V_MPEG4/ISO/AVC
Продолжительность : 2 ч. 0 м.
Битрейт : 7920 Кбит/сек
Ширина : 1920 пикселей
Высота : 792 пикселя
Соотношение сторон : 2,40:1
Режим частоты кадров : Постоянный
Частота кадров : 23,976 кадра/сек
Цветовое пространство : YUV
Субдискретизация насыщенности : 4:2:0
Битовая глубина : 8 бит
Тип развёртки : Прогрессивная
Бит/(Пиксели*Кадры) : 0.217
Размер потока : 6,53 Гбайт (84%)
Заголовок : Rip by Boriy
Библиотека кодирования : x264 core 130 r2273 b3065e6
Настройки программы : cabac=1 / ref=5 / deblock=1:0:0 / analyse=0x3:0x113 / me=umh / subme=10 / psy=1 / psy_rd=1.00:0.10 / mixed_ref=1 / me_range=32 / chroma_me=1 / trellis=2 / 8x8dct=1 / cqm=0 / deadzone=21,11 / fast_pskip=0 / chroma_qp_offset=-2 / threads=12 / lookahead_threads=1 / sliced_threads=0 / nr=0 / decimate=0 / interlaced=0 / bluray_compat=0 / constrained_intra=0 / bframes=5 / b_pyramid=2 / b_adapt=2 / b_bias=0 / direct=3 / weightb=1 / open_gop=0 / weightp=2 / keyint=240 / keyint_min=23 / scenecut=40 / intra_refresh=0 / rc=2pass / mbtree=0 / bitrate=7920 / ratetol=1.0 / qcomp=0.60 / qpmin=0 / qpmax=69 / qpstep=4 / cplxblur=20.0 / qblur=0.5 / ip_ratio=1.40 / pb_ratio=1.30 / aq=1:0.80
Язык : English
Default : Да
Forced : Нет
Аудио #1
Идентификатор : 2
Формат : AC-3
Формат/Информация : Audio Coding 3
Расширение режима : CM (complete main)
Параметр Endianness формата : Big
Идентификатор кодека : A_AC3
Продолжительность : 2 ч. 0 м.
Вид битрейта : Постоянный
Битрейт : 640 Кбит/сек
Каналы : 6 каналов
Расположение каналов : Front: L C R, Side: L R, LFE
Частота : 48,0 КГц
Битовая глубина : 16 бит
Метод сжатия : С потерями
Размер потока : 553 Мбайт (7%)
Заголовок : Дубляж
Язык : Russian
Default : Да
Forced : Нет
Аудио #2
Идентификатор : 3
Формат : AC-3
Формат/Информация : Audio Coding 3
Расширение режима : CM (complete main)
Параметр Endianness формата : Big
Идентификатор кодека : A_AC3
Продолжительность : 2 ч. 0 м.
Вид битрейта : Постоянный
Битрейт : 640 Кбит/сек
Каналы : 6 каналов
Расположение каналов : Front: L C R, Side: L R, LFE
Частота : 48,0 КГц
Битовая глубина : 16 бит
Метод сжатия : С потерями
Размер потока : 553 Мбайт (7%)
Заголовок : Оригинал
Язык : English
Default : Нет
Forced : Нет
Текст #1
Идентификатор : 4
Формат : UTF-8
Идентификатор кодека : S_TEXT/UTF8
Идентификатор кодека/Информация : UTF-8 Plain Text
Язык : Russian
Default : Нет
Forced : Нет
Текст #2
Идентификатор : 5
Формат : UTF-8
Идентификатор кодека : S_TEXT/UTF8
Идентификатор кодека/Информация : UTF-8 Plain Text
Язык : English
Default : Нет
Forced : Нет
Меню
00:00:00.000 : :Chapter 1
00:02:48.251 : :Chapter 2
00:06:43.486 : :Chapter 3
00:10:33.382 : :Chapter 4
00:14:21.610 : :Chapter 5
00:17:59.995 : :Chapter 6
00:20:31.480 : :Chapter 7
00:24:31.553 : :Chapter 8
00:27:22.724 : :Chapter 9
00:29:42.363 : :Chapter 10
00:34:22.143 : :Chapter 11
00:37:36.170 : :Chapter 12
00:41:18.726 : :Chapter 13
00:46:50.057 : :Chapter 14
00:50:29.443 : :Chapter 15
00:53:33.960 : :Chapter 16
00:58:03.563 : :Chapter 17
01:01:25.264 : :Chapter 18
01:04:32.618 : :Chapter 19
01:09:17.736 : :Chapter 20
01:12:24.423 : :Chapter 21
01:16:06.311 : :Chapter 22
01:18:30.622 : :Chapter 23
01:22:36.868 : :Chapter 24
01:25:50.895 : :Chapter 25
01:29:52.136 : :Chapter 26
01:34:06.057 : :Chapter 27
01:37:08.072 : :Chapter 28
01:39:59.243 : :Chapter 29
01:42:57.754 : :Chapter 30
01:45:03.714 : :Chapter 31
01:48:28.084 : :Chapter 32
01:51:29.599 : :Chapter 33
01:53:52.909 : :Chapter 34
02:00:47.156 : :Chapter 35
[Профиль] [ЛС]
Кто просматривает тему:

Форум Тема Автор Размер
Author's Song (Author's Song) Никольский Константин - Музыкант (Лучшие песни) (2CD) - 2015 [FLAC, image+.cue, lossless] sergej644 765 MB
Author's Song (Author's Song) Никольский Константин - Музыкант (Лучшие песни) (2CD) - 2015 [MP3, tracks, 320 kbps] sergej644 310 MB
Author's Song (Rock) [CD] Константин Никольский - Энциклопедия Российского Рока - 2003, FLAC (image+.cue), lossless sergej644 529 MB
Author's Song (Rock) Константин Никольский - Я бреду по бездорожью... - 1993, 1st Press FLAC (image+.cue), lossless sergej644 314 MB
Author's Song (Rock, Blues) Константин Никольский – Лучшее (2 CD) - 2008, FLAC (image+.cue), lossless sergej644 983 MB
Rock (Рок) Константин Никольский - Музыкант (Deluxe Version) - 2015, MP3, 320 kbps достали все 232 MB
Отечественные cериалы 1812-1815. Заграничный поход [01-04 из 04] (Павел Тупик, Андрей Верещагин) [2014, Документальный, драма, исторический, реконструкция] WEB-DLRip BOSS 2.85 GB
Документальные HD 1812-1815. Заграничный Поход. Серии 1-4 (из 4) (Павел Тупик, Андрей Верещагин) [2014, Документальный | Реконструкция, HDTV 720p] TorrentFilm 6.29 GB
Показать сообщения:    

Текущее время: Сегодня 08:19

Часовой пояс: GMT



Вы не можете начинать темы
Вы не можете отвечать на сообщения
Вы не можете редактировать свои сообщения
Вы не можете удалять свои сообщения
Вы не можете голосовать в опросах
Вы не можете прикреплять файлы к сообщениям
Вы не можете скачивать файлы