(Rock, Blues) Константин Никольский – Лучшее (2 CD) - 2008, FLAC (image+.cue), lossless

 
Автор Сообщение

sergej644 ®

Пол:

Стаж: 4 года 11 месяцев

Сообщений: 6046

Откуда: Soviet Union



Награды: Нет

Торрент-статистика

Создавать темы 13-Ноя-2014 15:51

[Цитировать]

--Константин Никольский – Лучшее (2 CD)
Жанр: Rock, Blues
Год выпуска диска: 2008
Производитель диска: Россия
Аудио кодек: FLAC
Тип рипа: image+.cue
Битрейт аудио: lossless
Продолжительность: 1:13:31 + 1:10:48
Трэклист:

CD 1

01. Иллюзии
02. Один Взгляд Назад
03. Зеркало Мира
04. Ночная Птица
05. Облако
06. Мой Друг, Художник И Поэт
07. В Моей Душе Осадок Зла
08. Птицы Белые Мои
09. Музыкант
10. Пред чертой
11. Прошедший день
12. Когда Поймёшь Умом
13. Цветок у окна
14. Мне только снится жизнь моя
15. От любви к любви
16. Я Сам Из Тех...

CD 2

01. Песня о песне
02. Воскресенье
03. Утешь меня, судьба
04. Я бреду по бездорожью
05. Растаяла дымка сквозная
06. Спи, душа моя
07. Только там
08. Еще не сгустились тени
09. Голос
10. Без цели и расчета
11. В тишине заката
12. Не уходи, мой друг
BONUS LIVE:
13. Я Думал о Многом и Разном
14. Четыре Дерева
15. Опять до времени отложены дела
Доп. информация:

CD 1 Log EAC

Exact Audio Copy V0.99 prebeta 5 from 4. May 2009
Отчёт EAC об извлечении, выполненном 9. марта 2010, 19:18
Лучшее CD 1 / Константин Никольский
Дисковод: MATSHITAUJDA755 DVD/CDRW   Adapter: 1  ID: 0
Режим чтения                 : Достоверность
Использование точного потока : Да
Отключение кэша аудио        : Да
Использование указателей C2  : Нет
Коррекция смещения при чтении                     : 102
Способность читать области Lead-in и Lead-out     : Нет
Заполнение пропущенных сэмплов тишиной            : Да
Удаление блоков с тишиной в начале и конце        : Нет
При вычислениях CRC использовались нулевые сэмплы : Да
Интерфейс                                         : Встроенный Win32-интерфейс для Win NT/2000
Выходной формат          : Пользовательский кодировщик
Выбранный битрейт        : 768 kBit/s
Качество                 : Высокий
Добавление ID3-тэга      : Нет
Утилита сжатия           : C:\Program Files\Exact Audio Copy\FLAC\FLAC.EXE
Дополнительные параметры : -8 -V %s
TOC извлечённого CD
     Трек |   Старт  | Длительность | Начальный сектор | Конечный сектор
    ---------------------------------------------------------------------
       1  |  0:00.00 |    4:23.30   |           0      |      19754
       2  |  4:23.30 |    3:43.09   |       19755      |      36488
       3  |  8:06.39 |    5:12.62   |       36489      |      59950
       4  | 13:19.26 |    4:24.18   |       59951      |      79768
       5  | 17:43.44 |    2:54.68   |       79769      |      92886
       6  | 20:38.37 |    6:10.19   |       92887      |     120655
       7  | 26:48.56 |    4:52.47   |      120656      |     142602
       8  | 31:41.28 |    4:43.68   |      142603      |     163895
       9  | 36:25.21 |    5:22.17   |      163896      |     188062
      10  | 41:47.38 |    4:07.57   |      188063      |     206644
      11  | 45:55.20 |    5:16.63   |      206645      |     230407
      12  | 51:12.08 |    2:58.29   |      230408      |     243786
      13  | 54:10.37 |    4:20.62   |      243787      |     263348
      14  | 58:31.24 |    5:26.61   |      263349      |     287859
      15  | 63:58.10 |    5:34.63   |      287860      |     312972
      16  | 69:32.73 |    3:58.28   |      312973      |     330850
Характеристики диапазона извлечения и сообщения об ошибках
Выбранный диапазон
     Имя файла G:\FLACи\Константин Никольский - Лучшее\CD1\Лучшее CD 1 - Константин Никольский.wav
     Пиковый уровень 100.0 %
     Качество диапазона 100.0 %
     CRC теста 8D8206E5
     CRC копии 8D8206E5
     Копирование... OK
Ошибок не произошло
AccurateRip: сводка
Трек  1  нет в базе данных
Трек  2  нет в базе данных
Трек  3  нет в базе данных
Трек  4  нет в базе данных
Трек  5  нет в базе данных
Трек  6  нет в базе данных
Трек  7  нет в базе данных
Трек  8  нет в базе данных
Трек  9  нет в базе данных
Трек 10  нет в базе данных
Трек 11  нет в базе данных
Трек 12  нет в базе данных
Трек 13  нет в базе данных
Трек 14  нет в базе данных
Трек 15  нет в базе данных
Трек 16  нет в базе данных
Ни одного трека нет в базе AccurateRip
Конец отчёта

CD 2 Log EAC

Exact Audio Copy V0.99 prebeta 5 from 4. May 2009
Отчёт EAC об извлечении, выполненном 9. марта 2010, 19:56
Лучшее CD 2 / Константин Никольский
Дисковод: MATSHITAUJDA755 DVD/CDRW   Adapter: 1  ID: 0
Режим чтения                 : Достоверность
Использование точного потока : Да
Отключение кэша аудио        : Да
Использование указателей C2  : Нет
Коррекция смещения при чтении                     : 102
Способность читать области Lead-in и Lead-out     : Нет
Заполнение пропущенных сэмплов тишиной            : Да
Удаление блоков с тишиной в начале и конце        : Нет
При вычислениях CRC использовались нулевые сэмплы : Да
Интерфейс                                         : Встроенный Win32-интерфейс для Win NT/2000
Выходной формат          : Пользовательский кодировщик
Выбранный битрейт        : 768 kBit/s
Качество                 : Высокий
Добавление ID3-тэга      : Нет
Утилита сжатия           : C:\Program Files\Exact Audio Copy\FLAC\FLAC.EXE
Дополнительные параметры : -8 -V %s
TOC извлечённого CD
     Трек |   Старт  | Длительность | Начальный сектор | Конечный сектор
    ---------------------------------------------------------------------
       1  |  0:00.00 |    5:13.10   |           0      |      23484
       2  |  5:13.10 |    6:29.14   |       23485      |      52673
       3  | 11:42.24 |    3:55.66   |       52674      |      70364
       4  | 15:38.15 |    5:49.72   |       70365      |      96611
       5  | 21:28.12 |    6:03.09   |       96612      |     123845
       6  | 27:31.21 |    4:42.36   |      123846      |     145031
       7  | 32:13.57 |    4:26.31   |      145032      |     165012
       8  | 36:40.13 |    4:00.33   |      165013      |     183045
       9  | 40:40.46 |    4:06.09   |      183046      |     201504
      10  | 44:46.55 |    5:09.48   |      201505      |     224727
      11  | 49:56.28 |    3:13.08   |      224728      |     239210
      12  | 53:09.36 |    8:36.62   |      239211      |     277972
      13  | 61:46.23 |    3:21.52   |      277973      |     293099
      14  | 65:08.00 |    2:40.43   |      293100      |     305142
      15  | 67:48.43 |    2:59.62   |      305143      |     318629
Характеристики диапазона извлечения и сообщения об ошибках
Выбранный диапазон
     Имя файла G:\FLACи\Константин Никольский - Лучшее\CD2\Лучшее CD 2 - Константин Никольский.wav
     Пиковый уровень 100.0 %
     Качество диапазона 99.9 %
     CRC теста EDCF16C0
     CRC копии EDCF16C0
     Копирование... OK
Ошибок не произошло
AccurateRip: сводка
Трек  1  нет в базе данных
Трек  2  нет в базе данных
Трек  3  нет в базе данных
Трек  4  нет в базе данных
Трек  5  нет в базе данных
Трек  6  нет в базе данных
Трек  7  нет в базе данных
Трек  8  нет в базе данных
Трек  9  нет в базе данных
Трек 10  нет в базе данных
Трек 11  нет в базе данных
Трек 12  нет в базе данных
Трек 13  нет в базе данных
Трек 14  нет в базе данных
Трек 15  нет в базе данных
Ни одного трека нет в базе AccurateRip
Конец отчёта
--
[Профиль] [ЛС]

Создавать темы 13-Авг-2015 10:28 (спустя 8 месяцев 29 дней)

Топик был перенесен из форума Отечественная в форум Author's Song
sergej644
 
Показать сообщения:    

Текущее время: Сегодня 23:31

Часовой пояс: GMT



Вы не можете начинать темы
Вы не можете отвечать на сообщения
Вы не можете редактировать свои сообщения
Вы не можете удалять свои сообщения
Вы не можете голосовать в опросах
Вы не можете прикреплять файлы к сообщениям
Вы не можете скачивать файлы