Константин: Город демонов / Constantine: City of Demons (2018) HDRip 720p | ColdFilm

 
Author Message

BOSS ®

Gender:

Longevity: 4 years 8 months

Posts: 14112

Location: ODESSA



: 22 ()

Mega Releaser 2 (1) Top Releaser 3 (1) Top Seeder 4 (1)
Торрент-статистика

Post 11-Oct-2018 19:26

[Quote]

Информация о фильме
Название: Константин: Город демонов
Оригинальное название: Constantine: City of Demons
Год выпуска: 2018
Жанр: Мультфильм, драма, ужасы, полнометражный
Режиссер: Даг Мерфи
В ролях: Мэтт Райан, Дэмиан О’Хейр, Лора Бэйли, Эмили О’Брайэн, Робин Аткин Даунс, Рэйчел Кимси, Джим Мескимен, Кевин Майкл Ричардсон, Рик Д. Вассерман
О фильме:
Жизнь экзорциста Джона Константина может закончится в любой момент. Его убивает не только пагубная привычка выкуривать по десятку сигарет в день, но и утомительная работа, ведь изгонять демонов из человеческого мира — дело непростое. Каждое новое столкновение с силами зла заставляет Джона вступать в схватку, где победу способны принести не только острый ум и знание врага, но и любимый дробовик.

Страна: США
Студия: DC Entertainment
Продолжительность: 01:30:37
Перевод: Любительский многоголосый закадровый [ColdFilm]
Файл
Кодек: x264 (AVC)
Качество: WEBRip 720p
Видео: ~ 4000 Кбит/с, 1280x720, 23.976 fps
Звук: Русский / AAC / 2.0 / 192 kbs

Скриншоты

MI

General
Unique ID : 253829560982802533985160892755082786573 (0xBEF5CB93FADCB186A813BE059E88B70D)
Complete name : D:Constantine.City.of.Demons.720p.ColdFilm.mkv
Format : Matroska
Format version : Version 2
File size : 2.00 GiB
Duration : 1 h 30 min
Overall bit rate : 3 164 kb/s
Movie name : EVO
Encoded date : UTC 2018-10-08 20:09:46 / UTC 2018-10-08 12:47:40
Writing application : mkvmerge v3.3.0 ('Language') built on Mar 24 2010 14:59:24
Writing library : libebml v0.8.0 + libmatroska v0.9.0 / Lavf54.63.104
Video
ID : 1
Format : AVC
Format/Info : Advanced Video Codec
Format profile : Main@L3.1
Format settings : CABAC / 1 Ref Frames
Format settings, CABAC : Yes
Format settings, ReFrames : 1 frame
Codec ID : V_MPEG4/ISO/AVC
Duration : 1 h 30 min
Bit rate : 3 000 kb/s
Width : 1 280 pixels
Height : 720 pixels
Display aspect ratio : 16:9
Frame rate mode : Constant
Frame rate : 23.976 (24000/1001) FPS
Color space : YUV
Chroma subsampling : 4:2:0
Bit depth : 8 bits
Scan type : Progressive
Bits/(Pixel*Frame) : 0.136
Stream size : 1.84 GiB (92%)
Writing library : x264 core 129
Default : No
Forced : No
Audio
ID : 2
Format : AC-3
Format/Info : Audio Coding 3
Codec ID : A_AC3
Duration : 1 h 30 min
Bit rate mode : Constant
Bit rate : 192 kb/s
Channel(s) : 2 channels
Channel positions : Front: L R
Sampling rate : 48.0 kHz
Frame rate : 31.250 FPS (1536 SPF)
Bit depth : 16 bits
Compression mode : Lossy
Stream size : 124 MiB (6%)
Service kind : Complete Main
Default : Yes
Forced : No
Релиз от:
[Profile] [PM]
Display posts from previous:    

The time now is: Today 11:20

All times are GMT



You cannot post new topics in this forum
You cannot reply to topics in this forum
You cannot edit your posts in this forum
You cannot delete your posts in this forum
You cannot vote in polls in this forum
You cannot attach files in this forum
You cannot download files in this forum