Конец «Сатурна» (Виллен Азаров) [1967, военный, DVDRip-AVC]

 
Автор Сообщение

sergej644 ®

Пол:

Стаж: 4 года 11 месяцев

Сообщений: 6038

Откуда: Soviet Union



Награды: Нет

Торрент-статистика

Создавать темы 19-Дек-2014 12:44

[Цитировать]

Конец «Сатурна»
Жанр: военный
Год выпуска: 1967
Продолжительность: 01:31:19
Режиссёр: Виллен Азаров
В ролях:
Михаил Волков - Крылов
Григорий Гай - Андронов
Михаил Глузский - Сивков
Николай Граббе - Ольховиков
Георгий Жжёнов - генерал Тимерин
Владимир Кашпур - лейтенант Бударин
Евгений Кузнецов - генерал Симаков
Людмила Максакова - Софи
Владимир Муравьёв - Завгородний
Владимир Покровский - полковник фон Клее
Николай Прокопович - майор Вильгельми
Валентина Талызина - Надя
Бруно Фрейндлих - Адмирал Канарис
Людмила Шапошникова - капитан Шенеман
Геннадий Юхтин - Суконцев
Описание: Художественный фильм по роману Василия Ардаматского, продолжение фильма «Путь в «Сатурн». Вторая часть трилогии. Продолжение в фильме «Бой после победы». Получив от разведчиков сведения о деятельности немецких диверсионных групп, советская контрразведка повела игру по дезинформации противника. Деятельность разведцентра «Сатурн» была нейтрализована.
[kp]44900[/kp]
Качество видео: DVDRip-AVC
Формат видео: MKV
Видео: x264 (High@L4.1); Анаморф 696@742x400, Display aspect ratio 1.855:1, 25.000 fps, 2020 Kbps
Аудио: Оригинал AC-3; 16 bit 48 Khz; 2ch 256 Kbps; CBR

Скриншоты

MediaInfo

General
Unique ID : 242004340378532883614716282198168439105 (0xB61057304B763D7090F64F65BC7C0941)
Complete name : Конец Сатурна.1967.mkv
Format : Matroska
Format version : Version 2
File size : 1.45 GiB
Duration : 1h 31mn
Overall bit rate : 2 278 Kbps
Encoded date : UTC 2012-08-12 19:33:47
Writing application : mkvmerge v5.7.0 ('The Whirlwind') built on Jul 8 2012 20:08:51
Writing library : libebml v1.2.3 + libmatroska v1.3.0
Video
ID : 1
Format : AVC
Format/Info : Advanced Video Codec
Format profile : High@L4.1
Format settings, CABAC : Yes
Format settings, ReFrames : 16 frames
Codec ID : V_MPEG4/ISO/AVC
Duration : 1h 31mn
Bit rate : 2 020 Kbps
Width : 696 pixels
Height : 400 pixels
Display aspect ratio : 1.855
Original display aspect ratio : 1.856
Frame rate : 25.000 fps
Color space : YUV
Chroma subsampling : 4:2:0
Bit depth : 8 bits
Scan type : Progressive
Bits/(Pixel*Frame) : 0.290
Stream size : 1.26 GiB (87%)
Title : Конец Сатурна.1967
Writing library : x264 core 125 r2200 999b753
Encoding settings : cabac=1 / ref=16 / deblock=1:-1:-1 / analyse=0x3:0x133 / me=umh / subme=11 / psy=1 / psy_rd=1.00:0.15 / mixed_ref=1 / me_range=48 / chroma_me=1 / trellis=2 / 8x8dct=1 / cqm=0 / deadzone=21,11 / fast_pskip=0 / chroma_qp_offset=-3 / threads=12 / lookahead_threads=2 / sliced_threads=0 / nr=0 / decimate=0 / interlaced=0 / bluray_compat=0 / constrained_intra=0 / bframes=10 / b_pyramid=2 / b_adapt=2 / b_bias=0 / direct=3 / weightb=1 / open_gop=0 / weightp=2 / keyint=250 / keyint_min=25 / scenecut=40 / intra_refresh=0 / rc_lookahead=60 / rc=2pass / mbtree=1 / bitrate=2020 / ratetol=1.0 / qcomp=0.60 / qpmin=0 / qpmax=69 / qpstep=4 / cplxblur=20.0 / qblur=0.5 / vbv_maxrate=50000 / vbv_bufsize=62500 / nal_hrd=none / ip_ratio=1.40 / aq=1:1.00
Language : Russian
Default : Yes
Forced : No
Color primaries : BT.470-6 System B, BT.470-6 System G, BT.601-6 625, BT.1358 625, BT.1700 625 PAL, BT.1700 625 SECAM
Transfer characteristics : BT.470-6 System B, BT.470-6 System G
Matrix coefficients : BT.470-6 System B, BT.470-6 System G, BT.601-6 625, BT.1358 625, BT.1700 625 PAL, BT.1700 625 SECAM, IEC 61966-2-4 601
Audio
ID : 2
Format : AC-3
Format/Info : Audio Coding 3
Mode extension : CM (complete main)
Codec ID : A_AC3
Duration : 1h 31mn
Bit rate mode : Constant
Bit rate : 256 Kbps
Channel(s) : 2 channels
Channel positions : Front: L R
Sampling rate : 48.0 KHz
Bit depth : 16 bits
Compression mode : Lossy
Stream size : 167 MiB (11%)
Title : Оригинал AC-3; 16 bit 48 Khz; 2ch 256 Kbps; CBR
Language : Russian
Default : Yes
Forced : No

x264 log

...last pass...
x264.exe: --pass 2 --bitrate 2020 --preset medium --ref 16 --deblock -1:-1 --merange 48 --bframes 10 --direct auto --b-adapt 2 --trellis 2 --no-fast-pskip --no-dct-decimate --psy-rd 1.00:0.15 --vbv-maxrate 50000 --vbv-bufsize 62500 --partitions all --subme 11 --me umh --rc-lookahead 60 --colorprim bt470bg --transfer bt470bg --colormatrix bt470bg --sar 16:15 --stats "L:\Temp\0525.log" --output "L:\Temp\0525.264" "L:\Temp\0525.avs"
avs [info]: 696x400p 16:15 @ 25/1 fps (cfr)
x264 [info]: using SAR=16/15
x264 [info]: using cpu capabilities: MMX2 SSE2Fast SSSE3 FastShuffle SSE4.2
x264 [info]: profile High, level 4.1
x264 [info]: frame I:642 Avg QP:18.23 size: 44255
x264 [info]: frame P:26389 Avg QP:19.05 size: 25368
x264 [info]: frame B:109946 Avg QP:22.89 size: 6237
x264 [info]: consecutive B-frames: 0.9% 1.9% 2.7% 13.4% 17.6% 48.6% 9.3% 3.8% 1.2% 0.5% 0.2%
x264 [info]: mb I I16..4: 9.8% 71.0% 19.2%
x264 [info]: mb P I16..4: 0.2% 6.1% 1.3% P16..4: 30.5% 39.3% 14.7% 6.7% 0.8% skip: 0.4%
x264 [info]: mb B I16..4: 0.0% 0.7% 0.1% B16..8: 39.4% 21.0% 2.8% direct: 9.0% skip:26.9% L0:37.1% L1:39.3% BI:23.6%
x264 [info]: 8x8 transform intra:80.1% inter:48.5%
x264 [info]: direct mvs spatial:99.1% temporal:0.9%
x264 [info]: coded y,uvDC,uvAC intra: 97.3% 61.4% 26.5% inter: 33.4% 15.1% 4.8%
x264 [info]: i16 v,h,dc,p: 17% 13% 9% 62%
x264 [info]: i8 v,h,dc,ddl,ddr,vr,hd,vl,hu: 13% 12% 8% 8% 12% 11% 12% 10% 14%
x264 [info]: i4 v,h,dc,ddl,ddr,vr,hd,vl,hu: 16% 22% 4% 7% 11% 10% 11% 8% 12%
x264 [info]: i8c dc,h,v,p: 34% 28% 25% 12%
x264 [info]: Weighted P-Frames: Y:38.6% UV:0.2%
x264 [info]: ref P L0: 33.5% 9.6% 14.9% 8.1% 6.1% 5.1% 4.5% 2.7% 2.5% 2.3% 2.1% 1.9% 1.8% 1.7% 1.7% 1.3%
x264 [info]: ref B L0: 80.9% 8.2% 2.8% 1.7% 1.2% 1.1% 0.9% 0.6% 0.5% 0.5% 0.4% 0.4% 0.4% 0.3% 0.1%
x264 [info]: ref B L1: 96.2% 3.8%
x264 [info]: kb/s:2020.20
x264 [total]: encoded 136977 frames, 11.62 fps, 2020.20 kb/s
--
[Профиль] [ЛС]

Создавать темы 06-Авг-2015 22:03 (спустя 7 месяцев 18 дней)

Топик был перенесен из форума Кино СССР в форум Кино СССР
sergej644
 
Кто просматривает тему:

Форум Тема Автор Размер
BBC BBC: Horizon. Танцы на грани тьмы - это конец физики? / Horizon. Dancing in the Dark - The End of Physics? (Peter Leonard) [2015 г., Документальный, научно-познавательный, SATRip] skorpionN 696 MB
Action S.T.A.L.K.E.R.: Shadow of Chernobyl - Конец Света 2: Последний Восход (1.3) (2015) [Repack, RUS] by SeregA-Lus (обновлен от 01.10.2015) Garik014 3.2 GB
Фантастика и фэнтези Александр Конторович – Реконструктор 02. Дорога в один конец (2015) MP3 Swager 621 MB
Фильмы 2015 года Атака титанов. Фильм второй: Конец света / Shingeki no kyojin endo obu za wârudo (2015) HDRip от MegaPeer | iTunes достали все 742 MB
Фильмы (HD Rips | 720p, 1080p) Атака титанов. Фильм второй: Конец света / Shingeki no kyojin endo obu za wârudo (2015) WEB-DL 1080p | iTunes достали все 2.92 GB
Фильмы 2015 года Атака титанов. Фильм второй: Конец света / Shingeki no kyojin endo obu za wârudo (2015) WEB-DLRip-AVC | iTunes достали все 1.58 GB
Фильмы (HD Rips | 720p, 1080p) Атака титанов. Фильм второй: Конец света / Shingeki no kyojin: Attack on Titan - End of the World (2015) BDRip 1080p | iTunes достали все 9.07 GB
Фильмы (HD Rips | 720p, 1080p) Атака титанов. Фильм второй: Конец света / Shingeki no kyojin: Attack on Titan - End of the World (2015) BDRip 720p | iTunes достали все 3.65 GB
Показать сообщения:    

Текущее время: Сегодня 10:32

Часовой пояс: GMT



Вы не можете начинать темы
Вы не можете отвечать на сообщения
Вы не можете редактировать свои сообщения
Вы не можете удалять свои сообщения
Вы не можете голосовать в опросах
Вы не можете прикреплять файлы к сообщениям
Вы не можете скачивать файлы