Конец императора тайги (1978) DVDRip-AVC от New-Team

 
Автор Сообщение

sergej644 ®

Пол:

Стаж: 4 года 11 месяцев

Сообщений: 6046

Откуда: Soviet Union



Награды: Нет

Торрент-статистика

Создавать темы 13-Янв-2015 20:58

[Цитировать]

Страна: СССР
Производство: Студия Горького
Жанр: приключения, биография, военный
Год выпуска: 1978
Продолжительность: 01:25:17
Перевод: не требуется
Оригинальная аудиодорожка: русский
Cубтитры: нет
Режиссер: Владимир Саруханов
В ролях:
Андрей Ростоцкий, Иван Краско, Герман Качин, Юрий Майнагашев, Олег Балакин, Асанкул Куттубаев, Светлана Чаптыкова, Виталий Канзычаков, Нина Саруханова, Алексей Махайлов, Юрий Котюшев, Георгий Юматов...
Описание:
1922 год — время, когда в Хакасии шли изнурительные бои красных с бандой атамана Соловьева. Фильм воспроизводит одну из малоизвестных страниц биографии Аркадия Гайдара (Голикова), когда он юношей был назначен командиром отряда ЧОНа (частей особого назначения)…- -Исходник: DVD5 R5
Тип релиза: DVDRip-AVC
Контейнер: MKV
Видео: 720->1064x572 (1,864:1), 25 fps, H264 ~ 2058 kbps avg, 0.200 bit/pixel
Аудио: 48 kHz, Dolby AC3 5.1, 384 kbps

MediaInfo

Общее
Полное имя : Konec.imperatora.taygi.1978.DVDRip-AVC_by_AVP Studio.mkv
Формат : Matroska
Версия формата : Version 2
Размер файла : 1,46 Гбайт
Продолжительность : 1 ч. 25 м.
Общий поток : 2444 Кбит/сек
Дата кодирования : UTC 2013-10-08 12:13:03
Программа кодирования : mkvmerge v6.1.0 ('Old Devil') built on Mar 4 2013 09:10:42
Библиотека кодирования : libebml v1.3.0 + libmatroska v1.4.0
Видео
Идентификатор : 1
Формат : AVC
Формат/Информация : Advanced Video Codec
Профиль формата : High@L4.1
Параметр CABAC формата : Да
Параметр ReFrames формата : 6 кадров
Идентификатор кодека : V_MPEG4/ISO/AVC
Продолжительность : 1 ч. 25 м.
Битрейт : 2058 Кбит/сек
Ширина : 720 пикселей
Высота : 572 пикселя
Соотношение сторон : 1,864
Соотношение сторон в оригинале : 1,863
Частота кадров : 25,000 кадров/сек
Цветовое пространство : YUV
Субдискретизация насыщенности : 4:2:0
Битовая глубина : 8 бит
Тип развёртки : Прогрессивная
Бит/(Пиксели*Кадры) : 0.200
Размер потока : 1,20 Гбайт (82%)
Библиотека кодирования : x264 core 138 r2356 a1d3d17
Настройки программы : cabac=1 / ref=6 / deblock=1:-2:-1 / analyse=0x3:0x113 / me=umh / subme=10 / psy=1 / psy_rd=1.00:0.05 / mixed_ref=1 / me_range=32 / chroma_me=1 / trellis=2 / 8x8dct=1 / cqm=0 / deadzone=21,11 / fast_pskip=0 / chroma_qp_offset=-3 / threads=3 / lookahead_threads=1 / sliced_threads=0 / nr=0 / decimate=0 / interlaced=0 / bluray_compat=0 / constrained_intra=0 / bframes=8 / b_pyramid=2 / b_adapt=2 / b_bias=0 / direct=3 / weightb=1 / open_gop=0 / weightp=2 / keyint=250 / keyint_min=25 / scenecut=40 / intra_refresh=0 / rc=2pass / mbtree=0 / bitrate=2058 / ratetol=1.0 / qcomp=0.60 / qpmin=0 / qpmax=69 / qpstep=4 / cplxblur=20.0 / qblur=0.5 / ip_ratio=1.40 / pb_ratio=1.30 / aq=1:1.00
Default : Да
Forced : Нет
Аудио
Идентификатор : 2
Формат : AC-3
Формат/Информация : Audio Coding 3
Расширение режима : CM (complete main)
Идентификатор кодека : A_AC3
Продолжительность : 1 ч. 25 м.
Вид битрейта : Постоянный
Битрейт : 384 Кбит/сек
Каналы : 6 каналов
Расположение каналов : Front: L C R, Side: L R, LFE
Частота : 48,0 КГц
Битовая глубина : 16 бит
Метод сжатия : С потерями
Размер потока : 234 Мбайт (16%)
Default : Да
Forced : Нет

Скриншоты

[Профиль] [ЛС]

Создавать темы 06-Авг-2015 22:00 (спустя 6 месяцев 24 дня)

Топик был перенесен из форума Кино СССР в форум Кино СССР
sergej644
 
Кто просматривает тему:

Форум Тема Автор Размер
BBC BBC: Horizon. Танцы на грани тьмы - это конец физики? / Horizon. Dancing in the Dark - The End of Physics? (Peter Leonard) [2015 г., Документальный, научно-познавательный, SATRip] skorpionN 696 MB
Action S.T.A.L.K.E.R.: Shadow of Chernobyl - Конец Света 2: Последний Восход (1.3) (2015) [Repack, RUS] by SeregA-Lus (обновлен от 01.10.2015) Garik014 3.2 GB
Фантастика и фэнтези Александр Конторович – Реконструктор 02. Дорога в один конец (2015) MP3 Swager 621 MB
Фильмы 2015 года Атака титанов. Фильм второй: Конец света / Shingeki no kyojin endo obu za wârudo (2015) HDRip от MegaPeer | iTunes достали все 742 MB
Фильмы (HD Rips | 720p, 1080p) Атака титанов. Фильм второй: Конец света / Shingeki no kyojin endo obu za wârudo (2015) WEB-DL 1080p | iTunes достали все 2.92 GB
Фильмы 2015 года Атака титанов. Фильм второй: Конец света / Shingeki no kyojin endo obu za wârudo (2015) WEB-DLRip-AVC | iTunes достали все 1.58 GB
Фильмы (HD Rips | 720p, 1080p) Атака титанов. Фильм второй: Конец света / Shingeki no kyojin: Attack on Titan - End of the World (2015) BDRip 1080p | iTunes достали все 9.07 GB
Фильмы (HD Rips | 720p, 1080p) Атака титанов. Фильм второй: Конец света / Shingeki no kyojin: Attack on Titan - End of the World (2015) BDRip 720p | iTunes достали все 3.65 GB
Показать сообщения:    

Текущее время: Сегодня 18:49

Часовой пояс: GMT



Вы не можете начинать темы
Вы не можете отвечать на сообщения
Вы не можете редактировать свои сообщения
Вы не можете удалять свои сообщения
Вы не можете голосовать в опросах
Вы не можете прикреплять файлы к сообщениям
Вы не можете скачивать файлы