Конец игры / End Game (Энди Чэн / Andy Cheng) [2006, Германия, США, Канада, боевик, триллер, драма, криминал, DVDRip] MVO

 
Автор Сообщение

TorrentFilm ®

Пол:

Стаж: 2 года

Сообщений: 7741



Награды: Нет

Торрент-статистика

Создавать темы 11-Авг-2015 00:09

[Цитировать]

Конец игры / End Game
Страна: Германия, США, Канада
Жанр: боевик, триллер, драма, криминал
Год выпуска: 2006
Продолжительность: 01:32:14
Перевод: Профессиональный (многоголосый закадровый)
Cубтитры: нет
Режиссер: Энди Чэн /Andy Cheng
В ролях: Кьюба Гудинг мл., Энджи Хармон, Джеймс Вудс, Патрик Фабиан, Питер Грин, Джек Скалия, Энн Арчер, Дэвид Селби, Берт Рейнолдс, Сара Анн Шультс
Описание: Убит президент США. Агент секретной службы Алекс Томас, ответственный за безопасность главы американского государства, винит себя в его гибели. Томас покидает свой пост, но тем не менее решает заняться расследованием этого преступления. В поисках убийцы ему помогает настырная журналистка Кейт Кроуфорд.
Вместе они начинают распутывать нити, ведущие к высокопоставленным заговорщикам бывшему руководителю спецслужбы генералу Монтгомери и директору Управления национальной безопасности Вону Стивенсу.
Сэмпл: http://multi-up.com/1061896

Качество видео: DVDRip - Исходник
Формат видео: AVI
Видео: 656x352 (1.86:1), 25 fps, XviD, 993 kbps, 0.17 bit/pixel
Аудио: 48 kHz, MPEG Layer 3, 2 ch, 128.00 kbps , МVO

MediaInfo

General
Complete name : E:\Раздачи\torrentfilm.net\Konets_igry_745_by_max1wq.avi
Format : AVI
Format/Info : Audio Video Interleave
File size : 746 MiB
Duration : 1h 32mn
Overall bit rate : 1 131 Kbps
Writing application : VirtualDubMod 1.5.10.2 (build 2540/release)
Writing library : VirtualDubMod build 2540/release
Video
ID : 0
Format : MPEG-4 Visual
Format profile : Advanced Simple@L5
Format settings, BVOP : 2
Format settings, QPel : No
Format settings, GMC : No warppoints
Format settings, Matrix : Custom
Codec ID : XVID
Codec ID/Hint : XviD
Duration : 1h 32mn
Bit rate : 994 Kbps
Width : 656 pixels
Height : 352 pixels
Display aspect ratio : 1.85:1
Frame rate : 25.000 fps
Color space : YUV
Chroma subsampling : 4:2:0
Bit depth : 8 bits
Scan type : Progressive
Compression mode : Lossy
Bits/(Pixel*Frame) : 0.172
Stream size : 655 MiB (88%)
Writing library : XviD 73
Audio
ID : 1
Format : MPEG Audio
Format version : Version 1
Format profile : Layer 3
Codec ID : 55
Codec ID/Hint : MP3
Duration : 1h 32mn
Bit rate mode : Constant
Bit rate : 128 Kbps
Channel(s) : 2 channels
Sampling rate : 48.0 KHz
Compression mode : Lossy
Stream size : 84.4 MiB (11%)
Alignment : Aligned on interleaves
Interleave, duration : 40 ms (1.00 video frame)
Interleave, preload duration : 504 ms

Сравнение

http://torrentfilm.net/forum/viewtopic.php?t=84346 - другой перевод
[Профиль] [ЛС]
Кто просматривает тему:

Форум Тема Автор Размер
BBC BBC: Horizon. Танцы на грани тьмы - это конец физики? / Horizon. Dancing in the Dark - The End of Physics? (Peter Leonard) [2015 г., Документальный, научно-познавательный, SATRip] skorpionN 696 MB
Action S.T.A.L.K.E.R.: Shadow of Chernobyl - Конец Света 2: Последний Восход (1.3) (2015) [Repack, RUS] by SeregA-Lus (обновлен от 01.10.2015) Garik014 3.2 GB
Фантастика и фэнтези Александр Конторович – Реконструктор 02. Дорога в один конец (2015) MP3 Swager 621 MB
Фильмы 2015 года Атака титанов. Фильм второй: Конец света / Shingeki no kyojin endo obu za wârudo (2015) HDRip от MegaPeer | iTunes достали все 742 MB
Фильмы (HD Rips | 720p, 1080p) Атака титанов. Фильм второй: Конец света / Shingeki no kyojin endo obu za wârudo (2015) WEB-DL 1080p | iTunes достали все 2.92 GB
Фильмы 2015 года Атака титанов. Фильм второй: Конец света / Shingeki no kyojin endo obu za wârudo (2015) WEB-DLRip-AVC | iTunes достали все 1.58 GB
Фильмы (HD Rips | 720p, 1080p) Атака титанов. Фильм второй: Конец света / Shingeki no kyojin: Attack on Titan - End of the World (2015) BDRip 1080p | iTunes достали все 9.07 GB
Фильмы (HD Rips | 720p, 1080p) Атака титанов. Фильм второй: Конец света / Shingeki no kyojin: Attack on Titan - End of the World (2015) BDRip 720p | iTunes достали все 3.65 GB
Показать сообщения:    

Текущее время: Сегодня 13:02

Часовой пояс: GMT



Вы не можете начинать темы
Вы не можете отвечать на сообщения
Вы не можете редактировать свои сообщения
Вы не можете удалять свои сообщения
Вы не можете голосовать в опросах
Вы не можете прикреплять файлы к сообщениям
Вы не можете скачивать файлы