Конец детства / Childhood's End (2015) WEBRip 1080p | Трейлер

 
Автор Сообщение

BOSS ®

Пол:

Стаж: 2 года 1 месяц

Сообщений: 3732

Откуда: ODESSA



Награды: 20 (Подробнее)

Top Seeder 2 (Количество: 1) Top Keeper 3 (Количество: 1) Mega Seeder 5 (Количество: 1)
Торрент-статистика

Создавать темы 07-Июн-2015 07:17

[Цитировать]

Год выпуска: 2015
Производство: США
Жанр: фантастика
Перевод: Дублированный
Режиссер: Ник Харран
Продюсеры: Майкл Де Лука, Акива Голдсман, Мэтью Грэхэм
Актеры: Jacob Holt, Хейли Магнус, Колм Мини, Эшли Цукерман, Simone Oula, Lachlan, Roland-Kenn, Дэйзи Беттс, Корум Эллис, Ози Икхайл, Kumar Ishri
Описание фильма:
Сериал расскажет о мирном вторжении пришельцев на Землю: прибытие инопланетных гостей привело к немедленному прекращению войн и превратило планету практически в утопию.
Дата мировой премьеры: -
Дата российской премьеры: -

Продолжительность: 00:02:00
Качество видео: WEBRip
Видеокодек: MPEG-4 AVC/H.264
Битрейт видео: 2754 Кбит/сек
Размер кадра: 1920x800
Аудиокодек: AC3 2.0
Битрейт аудио: 126 Кбит/сек

MediaInfo:

Общее
Полное имя : Конец детства (1 сезон) Русский Трейлер (2015).mp4
Формат : MPEG-4
Профиль формата : Base Media
Идентификатор кодека : isom
Размер файла : 41,5 Мбайт
Продолжительность : 2 м. 0 с.
Общий поток : 2886 Кбит/сек
Программа кодирования : Lavf56.19.100
Видео
Идентификатор : 1
Формат : AVC
Формат/Информация : Advanced Video Codec
Профиль формата : High@L4
Параметр CABAC формата : Да
Параметр ReFrames формата : 2 кадра
Идентификатор кодека : avc1
Идентификатор кодека/Информация : Advanced Video Coding
Продолжительность : 2 м. 0 с.
Битрейт : 2754 Кбит/сек
Ширина : 1920 пикселей
Высота : 1080 пикселей
Соотношение сторон : 16:9
Режим частоты кадров : Постоянный
Частота кадров : 30,000 кадров/сек
Цветовое пространство : YUV
Субдискретизация насыщенности : 4:2:0
Битовая глубина : 8 бит
Тип развёртки : Прогрессивная
Бит/(Пиксели*Кадры) : 0.044
Размер потока : 39,6 Мбайт (95%)
Аудио
Идентификатор : 2
Формат : AAC
Формат/Информация : Advanced Audio Codec
Профиль формата : LC
Идентификатор кодека : 40
Продолжительность : 2 м. 0 с.
Вид битрейта : Постоянный
Битрейт : 126 Кбит/сек
Каналы : 2 канала
Расположение каналов : Front: L R
Частота : 44,1 КГц
Метод сжатия : С потерями
Размер потока : 1,81 Мбайт (4%)
Скриншоты - -

Скриншоты

[Профиль] [ЛС]
Кто просматривает тему:

Форум Тема Автор Размер
BBC BBC: Horizon. Танцы на грани тьмы - это конец физики? / Horizon. Dancing in the Dark - The End of Physics? (Peter Leonard) [2015 г., Документальный, научно-познавательный, SATRip] skorpionN 696 MB
Action S.T.A.L.K.E.R.: Shadow of Chernobyl - Конец Света 2: Последний Восход (1.3) (2015) [Repack, RUS] by SeregA-Lus (обновлен от 01.10.2015) Garik014 3.2 GB
Фантастика и фэнтези Александр Конторович – Реконструктор 02. Дорога в один конец (2015) MP3 Swager 621 MB
Фильмы 2015 года Атака титанов. Фильм второй: Конец света / Shingeki no kyojin endo obu za wârudo (2015) HDRip от MegaPeer | iTunes достали все 742 MB
Фильмы (HD Rips | 720p, 1080p) Атака титанов. Фильм второй: Конец света / Shingeki no kyojin endo obu za wârudo (2015) WEB-DL 1080p | iTunes достали все 2.92 GB
Фильмы 2015 года Атака титанов. Фильм второй: Конец света / Shingeki no kyojin endo obu za wârudo (2015) WEB-DLRip-AVC | iTunes достали все 1.58 GB
Фильмы (HD Rips | 720p, 1080p) Атака титанов. Фильм второй: Конец света / Shingeki no kyojin: Attack on Titan - End of the World (2015) BDRip 1080p | iTunes достали все 9.07 GB
Фильмы (HD Rips | 720p, 1080p) Атака титанов. Фильм второй: Конец света / Shingeki no kyojin: Attack on Titan - End of the World (2015) BDRip 720p | iTunes достали все 3.65 GB
Показать сообщения:    

Текущее время: Сегодня 12:30

Часовой пояс: GMT



Вы не можете начинать темы
Вы не можете отвечать на сообщения
Вы не можете редактировать свои сообщения
Вы не можете удалять свои сообщения
Вы не можете голосовать в опросах
Вы не можете прикреплять файлы к сообщениям
Вы не можете скачивать файлы