Конвой / Convoy (1978) BDRip 720p | D, P, P2, A

 
Автор Сообщение

sergej644 ®

Пол:

Стаж: 4 года 11 месяцев

Сообщений: 6035

Откуда: Soviet Union



Награды: Нет

Торрент-статистика

Создавать темы 10-Фев-2015 14:23

[Цитировать]

Информация о фильме
Название: Конвой
Оригинальное название: Convoy
Год выхода: 1978
Жанр: Приключения, комедия, боевик
Режиссер: Сэм Пекинпа
В ролях: Крис Кристофферсон, Эли МакГроу, Эрнест Боргнайн, Бёрт Янг, Мэдж Синклер, Френклин Эджайя, Брайан Дейвис, Сеймур Кэссел, Кэсси Йэтс, Уолтер Келли, Джексон Кэйн, Билли Э. Хьюз, Уайти Хьюз, Билл Кунтц, Томми Дж. Хафф, Ларри Сполдинг, Рэнди Брэйди, Аллен Келлер, Джим Берк, Боб Оррисон, Томми Буш, Уильям С. Джонс мл., Хорхе Руссек, Том Раньон, Вера Зинович, Патриция Мартинез, Донни Фриттс, Бобби Барнс
О фильме:
Мощный конвой грузовиков, вздымающих тучи пыли, движется к границе штата юго-западной части Америки. Массивную коллекцию машин всех размеров и очертаний ведет «Резиновый утенок», легендарный водитель-дальнобойщик, который собрал армию единомышленников, протестуя против полицейской коррупции, государственных законов и теневой политики. Ведь именно политики протолкнули федеральный закон, ограничивающий скорость движения на дорогах до смешных 55 миль в час, из-за чего водители постоянно теряют время и деньги…

Страна: США, Великобритания
Студия: EMI Films Ltd.
Продолжительность: 01:51:06
Перевод: Дублированный, профессиональный многоголосый, профессиональный двухголосый, авторский
Файл
Формат: MKV
Кодек: H.264
Качество: BDRip 720
Видео: 1280x544, 6960 Кбит/с, 23.976 кадр/с
Звук:
Аудио #1: Русский (AC3, 2 ch, 192 Кбит/с) / Дублированный (Советский (ремастер RusCiCo) + Советский (VHS) + Профессиональный двухголосый (НТВ+) - эксклюзив от pan29)
Аудио #2: Русский (AC3, 2 ch, 256 Кбит/с) / Дублированный (Советский + ОРТ от vakoola)
Аудио #3: Русский (AC3, 2 ch, 192 Кбит/с) / Дублированный (Советский (ремастер RusCiCo) + Профессиональный двухголосый (НТВ+) - от avlabarmsk)
Аудио #4: Русский (AC3, 2 ch, 192 Кбит/с) / Профессиональный многоголосый (НЕВА-1)
Аудио #5: Русский (AC3, 2 ch, 192 Кбит/с) / Профессиональный многоголосый (ОРТ, Selena International (VHS))
Аудио #6: Русский (АС3, 2 ch, 192 Кбит/с) / Профессиональный многоголосый (РЕН-ТВ - эксклюзив)
Аудио #7: Русский (АС3, 2 ch, 192 Кбит/с) / Профессиональный двухголосый (НТВ+)
Аудио #8: Русский (АС3, 6 ch, 448 Кбит/с) / Авторский одноголосый (Юрий Живов)
Аудио #9: Русский (АС3, 2 ch, 192 Кбит/с) / Авторский одноголосый (Алексей Михалев (VHS))
Аудио #10: Русский (АС3, 2 ch, 224 Кбит/с) / Авторский одноголосый (Алексей Михалев)
Аудио #11: Английский (АС3, 2 ch, 192 Кбит/с) / Ремастер RusCiCo
Аудио #12: Английский (АС3, 6 ch, 448 Кбит/с)
Субтитры:
1. Русские (DVD (RusCiCo) * 1131 таймингов)
2. Английские (Full * 1388 таймингов)
3. Английские (Full (без текста песен) * 1296 таймингов)
4. Английские (SDH Blu-ray disc * 1495 таймингов)
Формат субтитров: srt

Ограничения

12+ Зрителям достигшим 12 лет.
Рейтинг MPAA: PG
Рейтинг PG - Рекомендуется присутствие родителей
Этот рейтинг получают фильмы, которые требуют внимания со стороны родителей. Возможно некоторые сцены из картины родители посчитают неприемлемыми для просмотра своими детьми. Но в фильме точно отсутствуют сексуальные эпизоды и сцены с использованием наркотиков. Рейтинг PG никогда не присвоят ленте жанра хоррор или триллер.

Переводы

Аудиодорожка 1 (от pan29):
Сделана из трех исходных дорог:
* Советский дубляж (ремастер от RusCiCo);
* Дубляж с VHS записи фильма версии Советского кинопроката;
* Двухголосый перевод от НТВ+.
Имеет на 05.02.2014, в сравнение с аналогичными аудиодорожками, максимальный объем фрагментов Советского дубляжа.
Аудиодорожка 2 (от vakoola):
Эта дорога на 21.10.2013 является максимально полной по охвату советского дубляжа.
Заменены дубляжом эпизоды радио-троления Лайла Свинарником и Пауком в кафешке, попытка ареста Лайлом Паука, погоня по пыльной дороге, разговор Лайла и Паука в тюряге у Альвареса, начало и конец разговора Утёнка с Чаком Арнольди, разговор Милисы и Утёнка в лагере, встреча с Губернатором Хаскинсом и его траурная речь в финале, и ещё много по мелочи.
В общей сложности, к имеющейся на сегодняшний момент общеизвестной дороге "дубляж + ОРТ" добавлено 18 минут 30 секунд советской озвучки.
Аудиодорожка 3 (от avlabarmsk):
Описание автора:
В моей версии песни МакКолла, одна из главных достопримечательностей фильма, оставлены нетронутыми. В местах где они звучат я заглушал РУССИКОвскую дорожку и оставлял звук с оригинальной дороги. Пришлось пожертвовать брутальным дубляжом титров советской версии (В главной роли - Крис Кристоферсон!), зато отличными песнями можно насладиться в максимальном качестве так как они звучат на блюрике. Это касается начала фильма, сцены разгрома "Шофёрского Ада" Альвареса, и конца.
Во вторых, но это наверное самое главное, добился максимально возможной (для моего довольно слабого уровня владения Adobe Audition) плавности переходов одного отрывка в другой, чтобы отрывки не контрастировали друг с другом уровнем шипения, и восприятие дорожки было более менее однородным. Делал я это путём вырезания отдельных фраз (и иногда даже отдельных слов!) и расставлял их на места совмещая с фразами и словами оригинальной дорожки. Затем английскйю фразу я заглушал и таким образом на месте английской фразы оказывалась русская, тогда как общий фон оставался не тронутым. Затем перебирался к следующей фразе, и так весь фильм. (Большим плюсом этого способа было ещё и то, что обеспечивалось почти стопроцентное совпадение фраз с артикуляцией персонажей.) Создатели новой "экслюзивной" дороги по всей видимости не замарачивались такой ерундой и просто тупо клеили целые куски дубляжа на соответствующее место, вместе с шипением, не думая не то что о работе с каждой фразой, но даже не удосужились сгладить переходы одного куска в другой.
В некоторых местах из за разницы длинны фразы на английском и на русском, окончание английской фразы проступает из под русской. Я избавлялся от этого следующим образом, брал кусок фона из другого места этой сцены, и накладывал её на окончание английской фразы чтобы заглушить её. Таким образом русская фраза оканчивалась совершенно чисто, без всяких ненужных обрывков английских слов.
В третьих старался втыкать куски дубляжа не бездумно "чтоб было, патамушто на дубляже есть!", а всё-таки руководствуясь целесообразностью. К примеру, отрывок в начале когда Лайл подловил Утёнка с друзьями:
* Цитата:
Оригинальный текст (версия закадрового перевода):
Утёнок: - Эй Лайл, скоро ты станешь одним из нас.
Лайл: - То-есть?
Утёнок: - В профсоюз шофёров примут полицейских
Лайл: - Не может быть. Не хочу быть членом твоего союза.
Утёнок: - Я в нем не состою, я независимый.
Лайл: - Только в этом мы похожи.
Утёнок: - Не только. Таких как мы с тобой осталось мало.

Дубляж несколько короче этого отрывка, поэтому пришлось оставить какие-то фразы с закадровым переводом. Однако, ввиду того что перевод в советском дубляже не является дословным и не вполне соответствует смыслу английской речи, это было довольно трудной задачей.
Следовало подобрать сочетание фраз закадрового перевода и дубляжа таким образом чтобы разговор выглядел более менее осмысленно.
Я сделал это так:
* Цитата:
Закадровый
Утёнок: - Эй Лайл, скоро ты станешь одним из нас.
Лайл: - То-есть?
Утёнок: - В профсоюз шофёров примут полицейских
Лайл: - Не может быть. Не хочу быть членом твоего союза.
Утёнок: - Я в нем не состою, я независимый.

Дубляж
Лайл: - Хмммм... выходит в нас есть что-то общее?
Утёнок: - И не только это. Ещё и то что у нас обоих хорошая память.

Разговор выглядит осмысленно. После лёгкого троллинга Лайла "общим профсоюзом", Утёнок ухватывается за выражение "что-то общее" и намекает Лайлу что не забудет того зла которое Лайл причиняет ему и его друзьям.
В четвёртых: Ввиду перемонтажа советской версии, некоторые эпизоды имеют отличия в фоновой музыке. И если в этом месте находится русская фраза, то вырезать и наложить её на оригинальную дорожку невозможно, без того чтобы отличие фоновой музыки до начала фразы, во время фразы и после фразы было бы слишком заметно на слух. Это отличие делает вставку слишком явственной и она выглядит ужасно. По этой причине мне пришлось отказаться от вставки дубляжа пары фраз, а также дубляжа озвучки драки в таверне. Мне так-же пришлось всё таки вставить несколько фраз с разной музыкой, однако я постарался максимально возможно сгладить неровности, и свести такие вставки к минимуму.
Финальная речь губернатора. Работа над ней заставила меня здорово попотеть. Сцена эта сильно покромсана в советской версии, и мне пришлось немного растянуть слова губернатора чтобы сделать фразы чуточку длиннее, передвинуть фразы назад или вперёд, увеличить паузы между ними, а английские фразы просвечивающие сквозь дырки в русском дубляже "забить" фоновыми вставками шумящей толпы, вырезанных из другого места. В результате сцена оказалась почти полностью покрыта советским дубляжом.-В дорожке Живова, не переведенный участок заменен соответствующим фрагментом из дорожки с переводом Михалева.

Знаете ли вы, что...

* Фильм занимает 77-е место по посещаемости среди зарубежных фильмов в советском кинопрокате.
К общему сведению: В раздачах фильма в сети, очень часто наблюдается путаница в названиях дорожек НТВ (НТВ+) и ОРТ. Так, дорожки поименованные, как ОРТ и Советский дубляж с вставками ОРТ, должны именоваться, соответственно НТВ+ и Советский дубляж с вставками НТВ+. А дорожки с переводом НТВ (НТВ+), должны иметь название - ОРТ. И эта путаница, возможно, пошла с одной из первых раздач с 2008 г.

Скачать семпл

Семпл

Инфо-файл

General
Unique ID : 185775587306150351916240591840668237998 (0x8BC3139F8653EBA9AE6D3020B41340AE)
Complete name : D:Конвой. 1978. x264. BDRip (720p) - Morgan73.mkv
Format : Matroska
Format version : Version 2
File size : 7.47 GiB
Duration : 1h 51mn
Overall bit rate : 9 616 Kbps
Movie name : Convoy (1978)
Encoded date : UTC 2014-10-12 06:04:29
Writing application : mkvmerge v5.7.0 ('The Whirlwind') built on Jul 8 2012 20:08:51
Writing library : libebml v1.2.3 + libmatroska v1.3.0
Video
ID : 1
Format : AVC
Format/Info : Advanced Video Codec
Format profile : High@L4.1
Format settings, CABAC : Yes
Format settings, ReFrames : 8 frames
Codec ID : V_MPEG4/ISO/AVC
Duration : 1h 51mn
Bit rate : 6 960 Kbps
Width : 1 280 pixels
Height : 544 pixels
Display aspect ratio : 2.35:1
Frame rate mode : Constant
Frame rate : 23.976 fps
Color space : YUV
Chroma subsampling : 4:2:0
Bit depth : 8 bits
Scan type : Progressive
Bits/(Pixel*Frame) : 0.417
Stream size : 5.26 GiB (70%)
Title : Convoy (1978)
Writing library : x264 core 138 r2358 9e941d1
Encoding settings : cabac=1 / ref=8 / deblock=1:-3:-3 / analyse=0x3:0x113 / me=umh / subme=10 / psy=1 / psy_rd=1.00:0.20 / mixed_ref=1 / me_range=32 / chroma_me=1 / trellis=2 / 8x8dct=1 / cqm=0 / deadzone=21,11 / fast_pskip=0 / chroma_qp_offset=-3 / threads=12 / lookahead_threads=3 / sliced_threads=0 / nr=0 / decimate=0 / interlaced=0 / bluray_compat=0 / constrained_intra=0 / bframes=16 / b_pyramid=2 / b_adapt=2 / b_bias=0 / direct=3 / weightb=1 / open_gop=0 / weightp=2 / keyint=240 / keyint_min=23 / scenecut=40 / intra_refresh=0 / rc_lookahead=40 / rc=2pass / mbtree=0 / bitrate=6960 / ratetol=1.0 / qcomp=0.60 / qpmin=0 / qpmax=69 / qpstep=4 / cplxblur=20.0 / qblur=0.5 / vbv_maxrate=50000 / vbv_bufsize=62500 / nal_hrd=none / ip_ratio=1.40 / pb_ratio=1.30 / aq=1:1.00
Language : English
Default : Yes
Forced : No
Audio #1
ID : 2
Format : AC-3
Format/Info : Audio Coding 3
Mode extension : CM (complete main)
Format settings, Endianness : Big
Codec ID : A_AC3
Duration : 1h 51mn
Bit rate mode : Constant
Bit rate : 192 Kbps
Channel(s) : 2 channels
Channel positions : Front: L R
Sampling rate : 48.0 KHz
Bit depth : 16 bits
Compression mode : Lossy
Stream size : 153 MiB (2%)
Title : Дублированный / Советский (ремастер RusCiCo) + Советский (VHS) + Профессиональный двухголосый (НТВ+)
Language : Russian
Default : Yes
Forced : No
Audio #2
ID : 3
Format : AC-3
Format/Info : Audio Coding 3
Mode extension : CM (complete main)
Format settings, Endianness : Big
Codec ID : A_AC3
Duration : 1h 51mn
Bit rate mode : Constant
Bit rate : 256 Kbps
Channel(s) : 2 channels
Channel positions : Front: L R
Sampling rate : 48.0 KHz
Bit depth : 16 bits
Compression mode : Lossy
Stream size : 204 MiB (3%)
Title : Дублированный / Советский + ОРТ
Language : Russian
Default : No
Forced : No
Audio #3
ID : 4
Format : AC-3
Format/Info : Audio Coding 3
Mode extension : CM (complete main)
Format settings, Endianness : Big
Codec ID : A_AC3
Duration : 1h 51mn
Bit rate mode : Constant
Bit rate : 192 Kbps
Channel(s) : 2 channels
Channel positions : Front: L R
Sampling rate : 48.0 KHz
Bit depth : 16 bits
Compression mode : Lossy
Stream size : 153 MiB (2%)
Title : Дублированный / Советский (ремастер RusCiCo) + Профессиональный двухголосый (НТВ+)
Language : Russian
Default : No
Forced : No
Audio #4
ID : 5
Format : AC-3
Format/Info : Audio Coding 3
Mode extension : CM (complete main)
Format settings, Endianness : Big
Codec ID : A_AC3
Duration : 1h 51mn
Bit rate mode : Constant
Bit rate : 192 Kbps
Channel(s) : 2 channels
Channel positions : Front: L R
Sampling rate : 48.0 KHz
Bit depth : 16 bits
Compression mode : Lossy
Stream size : 153 MiB (2%)
Title : Профессиональный многоголосый / НЕВА-1
Language : Russian
Default : No
Forced : No
Audio #5
ID : 6
Format : AC-3
Format/Info : Audio Coding 3
Mode extension : CM (complete main)
Format settings, Endianness : Big
Codec ID : A_AC3
Duration : 1h 51mn
Bit rate mode : Constant
Bit rate : 192 Kbps
Channel(s) : 2 channels
Channel positions : Front: L R
Sampling rate : 48.0 KHz
Bit depth : 16 bits
Compression mode : Lossy
Stream size : 153 MiB (2%)
Title : Профессиональный многоголосый / ОРТ, Selena International (VHS)
Language : Russian
Default : No
Forced : No
Audio #6
ID : 7
Format : AC-3
Format/Info : Audio Coding 3
Mode extension : CM (complete main)
Format settings, Endianness : Big
Codec ID : A_AC3
Duration : 1h 51mn
Bit rate mode : Constant
Bit rate : 192 Kbps
Channel(s) : 2 channels
Channel positions : Front: L R
Sampling rate : 48.0 KHz
Bit depth : 16 bits
Compression mode : Lossy
Stream size : 153 MiB (2%)
Title : Профессиональный многоголосый / РЕН-ТВ
Language : Russian
Default : No
Forced : No
Audio #7
ID : 8
Format : AC-3
Format/Info : Audio Coding 3
Mode extension : CM (complete main)
Format settings, Endianness : Big
Codec ID : A_AC3
Duration : 1h 51mn
Bit rate mode : Constant
Bit rate : 192 Kbps
Channel(s) : 2 channels
Channel positions : Front: L R
Sampling rate : 48.0 KHz
Bit depth : 16 bits
Compression mode : Lossy
Stream size : 153 MiB (2%)
Title : Профессиональный двухголосый / НТВ+
Language : Russian
Default : No
Forced : No
Audio #8
ID : 9
Format : AC-3
Format/Info : Audio Coding 3
Mode extension : CM (complete main)
Format settings, Endianness : Big
Codec ID : A_AC3
Duration : 1h 51mn
Bit rate mode : Constant
Bit rate : 448 Kbps
Channel(s) : 6 channels
Channel positions : Front: L C R, Side: L R, LFE
Sampling rate : 48.0 KHz
Bit depth : 16 bits
Compression mode : Lossy
Stream size : 356 MiB (5%)
Title : Авторский перевод Юрия Живова
Language : Russian
Default : No
Forced : No
Audio #9
ID : 10
Format : AC-3
Format/Info : Audio Coding 3
Mode extension : CM (complete main)
Format settings, Endianness : Big
Codec ID : A_AC3
Duration : 1h 51mn
Bit rate mode : Constant
Bit rate : 192 Kbps
Channel(s) : 2 channels
Channel positions : Front: L R
Sampling rate : 48.0 KHz
Bit depth : 16 bits
Compression mode : Lossy
Stream size : 153 MiB (2%)
Title : Авторский перевод Алексея Михалева (VHS)
Language : Russian
Default : No
Forced : No
Audio #10
ID : 11
Format : AC-3
Format/Info : Audio Coding 3
Mode extension : CM (complete main)
Format settings, Endianness : Big
Codec ID : A_AC3
Duration : 1h 51mn
Bit rate mode : Constant
Bit rate : 224 Kbps
Channel(s) : 2 channels
Channel positions : Front: L R
Sampling rate : 48.0 KHz
Bit depth : 16 bits
Compression mode : Lossy
Stream size : 178 MiB (2%)
Title : Авторский перевод Алексея Михалева
Language : Russian
Default : No
Forced : No
Audio #11
ID : 12
Format : AC-3
Format/Info : Audio Coding 3
Mode extension : CM (complete main)
Format settings, Endianness : Big
Codec ID : A_AC3
Duration : 1h 51mn
Bit rate mode : Constant
Bit rate : 192 Kbps
Channel(s) : 2 channels
Channel positions : Front: L R
Sampling rate : 48.0 KHz
Bit depth : 16 bits
Compression mode : Lossy
Stream size : 153 MiB (2%)
Title : Ремастер RusCiCo
Language : English
Default : No
Forced : No
Audio #12
ID : 13
Format : AC-3
Format/Info : Audio Coding 3
Mode extension : CM (complete main)
Format settings, Endianness : Big
Codec ID : A_AC3
Duration : 1h 51mn
Bit rate mode : Constant
Bit rate : 192 Kbps
Channel(s) : 2 channels
Channel positions : Front: L R
Sampling rate : 48.0 KHz
Bit depth : 16 bits
Compression mode : Lossy
Stream size : 153 MiB (2%)
Title : Оригинал
Language : English
Default : No
Forced : No
Text #1
ID : 14
Format : UTF-8
Codec ID : S_TEXT/UTF8
Codec ID/Info : UTF-8 Plain Text
Title : DVD (RusCiCo)
Language : Russian
Default : No
Forced : No
Text #2
ID : 15
Format : UTF-8
Codec ID : S_TEXT/UTF8
Codec ID/Info : UTF-8 Plain Text
Title : Full
Language : English
Default : No
Forced : No
Text #3
ID : 16
Format : UTF-8
Codec ID : S_TEXT/UTF8
Codec ID/Info : UTF-8 Plain Text
Title : Full (без текста песен)
Language : English
Default : No
Forced : No
Text #4
ID : 17
Format : UTF-8
Codec ID : S_TEXT/UTF8
Codec ID/Info : UTF-8 Plain Text
Title : SDH Blu-ray disc
Language : English
Default : No
Forced : No
Menu
00:00:00.000 : :Chapter 01
00:03:09.398 : :Chapter 02
00:09:05.295 : :Chapter 03
00:13:22.926 : :Chapter 04
00:20:23.763 : :Chapter 05
00:29:11.750 : :Chapter 06
00:35:30.795 : :Chapter 07
00:39:51.556 : :Chapter 08
00:48:22.149 : :Chapter 09
01:00:54.985 : :Chapter 10
01:20:15.477 : :Chapter 11
01:40:18.845 : :Chapter 12

Скриншоты

[Профиль] [ЛС]
Показать сообщения:    

Текущее время: Сегодня 18:18

Часовой пояс: GMT



Вы не можете начинать темы
Вы не можете отвечать на сообщения
Вы не можете редактировать свои сообщения
Вы не можете удалять свои сообщения
Вы не можете голосовать в опросах
Вы не можете прикреплять файлы к сообщениям
Вы не можете скачивать файлы