Композиция на тему. Принцесса-Мимо (Франгиз Курбанова) [1991, Рисованный мультфильм, SATRip]

 
Автор Сообщение

painkiller ®

Стаж: 2 года 3 месяца

Сообщений: 582



Награды: Нет

Торрент-статистика

Создавать темы 27-Авг-2014 15:29

[Цитировать]

Композиция на тему. Принцесса-Мимо
Страна: СССР
Жанр: Рисованный мультфильм
Продолжительность: 00:06:40
Год выпуска: 1991
Русские субтитры: нет
Режиссёр: Франгиз Курбанова
Описание: Мультипликационный фильм для детей из серии "Композиция на тему". О том, как два Рыжих клоуна помогли Принцессе-Мимо спастись от козней злодея Белого клоуна.
Доп. информация: Оператор:Р.Агаев
Художник:Ф.Ахадов
Сценарий:Д.Сеидова
Композитор:Р.Паулс,Л.Вайнштейн
Постер by Lika1603
Рип by ItarTass
Качество: SATRip
Формат: AVI
Видео: 704x528 (1.33:1), 25 fps, XviD build 50 ~2221 kbps avg, 0.24 bit/pixel
Аудио: 48 kHz, MPEG Layer 3, 2 ch, ~192.00 kbps avg
Субтитры: нет

Подробные технические данные

Формат : AVIФормат/Информация : Audio Video InterleaveРазмер файла : 116 МбайтПродолжительность : 6 м. 40 с.Общий поток : 2424 Кбит/секНазвание фильма : Принцесса-Мимо(Композиция на тему.Принцесса Мимо)(1991)(SATRip)Программа кодирования : VirtualDubMod 1.5.10.2 (build 2540/release) VirtualDubMod build 2540/releaseФормат оригинала/Имя : мультфильмПравообладатель : Itar-Tass collection
ВидеоИдентификатор : 0Формат : MPEG-4 VisualПрофиль формата : Advanced Simple@L5Параметр BVOP формата : 1Параметр QPel формата : НетПараметр GMC формата : Без точки переходаПараметр матрицы формата : Default (MPEG)Идентификатор кодека : XVIDИдентификатор кодека/Подсказка : XviDПродолжительность : 6 м. 40 с.Битрейт : 2222 Кбит/секШирина : 704 пикс.Высота : 528 пикс.Соотношение сторон : 4:3Частота кадров : 25,000 кадр/секЦветовое пространство : YUVПодвыборка цветности : 4:2:0Битовая глубина : 8 битТип развёртки : ПрогрессивнаяМетод сжатия : С потерямиБит/(Пиксели*Кадры) : 0.239Размер потока : 106 Мбайт (92%)Библиотека кодирования : XviD 1.2.1 (UTC 2008-12-04)
АудиоИдентификатор : 1Формат : MPEG AudioВерсия формата : Version 1Профиль формата : Layer 3Идентификатор кодека : 55Идентификатор кодека/Подсказка : MP3Продолжительность : 6 м. 40 с.Вид битрейта : ПостоянныйБитрейт : 192 Кбит/секКанал(ы) : 2 канала(ов)Частота : 48,0 КГцМетод сжатия : С потерямиРазмер потока : 9,17 Мбайт (8%)Выравнивание : Соединение по промежуткамПродолжительность промежутка : 40 мс. (1,00 видеокадр)Время предзагрузки промежутка : 504 ms

Скриншоты

[Профиль] [ЛС]
Показать сообщения:    

Текущее время: Сегодня 18:34

Часовой пояс: GMT



Вы не можете начинать темы
Вы не можете отвечать на сообщения
Вы не можете редактировать свои сообщения
Вы не можете удалять свои сообщения
Вы не можете голосовать в опросах
Вы не можете прикреплять файлы к сообщениям
Вы не можете скачивать файлы