Комната страха / Panic Room (2002) WEB-DL 1080p | D, P, A

 
Автор Сообщение

BOSS ®

Пол:

Стаж: 3 года 7 месяцев

Сообщений: 10235

Откуда: ODESSA



Награды: 22 (Подробнее)

Mega Releaser 2 (Количество: 1) Top Keeper 3 (Количество: 1) Top Seeder 2 (Количество: 1)
Торрент-статистика

Создавать темы 13-Янв-2018 14:19

[Цитировать]

Информация о фильме
Название: Комната страха
Оригинальное название: Panic Room
Год выхода: 2002
Жанр: триллер, драма, криминал
Режиссер: Дэвид Финчер
В ролях: Джоди Фостер, Кристен Стюарт, Форест Уитакер, Дуайт Йоакам, Джаред Лето, Патрик Бошо, Энн Магнусон, Йен Бьюкэнэн, Мэл Родригез, Пол Шульц
О фильме:
Мэг Олтман с дочерью Сарой въехала в свой только что купленный дом, ранее принадлежащий миллионеру. Хороший дом, в хорошем районе, казалось бы идеальное место для жизни.
Помимо всего прочего дом оборудован так называемой «аварийной комнатой» в которой можно спрятаться, если в дом залезут воры. После того как дверь из стали закроется, попасть в комнату становится невозможно. Конечно, злодеи не заставили себя ждать…

Страна: США
Студия: Columbia Pictures Corporation, Hofflund/Polone, Indelible Pictures
Продолжительность: 01:47:20
Перевод: Профессиональный (дублированный) R5 + Профессиональный (многоголосый, закадровый) Superbit + Авторский (одноголосый, закадровый) А.Гаврилов + Авторский (одноголосый, закадровый) Ю.Живов + Авторский (одноголосый, закадровый) Е.Гаевский + Профессиональный (многоголосый, закадровый) ТРК "Украïна"
Файл
Качество: WEB-DL 1080p | AMZN
Формат: Matroska
Видео: 1920x800 at 25.000 fps, x264, ~7279 kbps avg
Аудио#1: Russian: 48 KHz, AC3, 3/2 (L,C,R,l,r) + LFE ch, ~448 kbps avg |Дубляж, R5|
Аудио#2: Russian: 48 KHz, AC3, 3/2 (L,C,R,l,r) + LFE ch, ~448 kbps avg |Многоголосый закадровый, Superbit|
Аудио#3: Russian: 48 KHz, AC3, 3/2 (L,C,R,l,r) + LFE ch, ~448 kbps avg |Авторский, А.Гаврилов|
Аудио#4: Russian: 48 KHz, AC3, 3/2 (L,C,R,l,r) + LFE ch, ~448 kbps avg |Авторский, Ю.Живов|
Аудио#5: Russian: 48 KHz, AC3, 3/2 (L,C,R,l,r) + LFE ch, ~384 kbps avg |Авторский, Е.Гаевский|
Аудио#6: Ukrainian: 48 KHz, AC3, 2/0 (L,R) ch, ~192 kbps avg |Многоголосый закадровый, ТРК "Украïна"|
Аудио#7: English: 48 KHz, AC3, 3/2 (L,C,R,l,r) + LFE ch, ~448 kbps avg
Субтитры: Russian (x2), English (SDH)
***Сохранены и подписаны оригинальные главы.
***Сборка, работа со звуком, субтитрами и главами - whip93.

Знаете ли вы, что...

Изначально Николь Кидман должна была исполнить роль Мэг Олтман, а Хайден Панеттьери сыграть её дочь, Сару. Незадолго до начала съёмок Хайден заменили Кристен Стюарт. Спустя восемнадцать дней с начала съёмок из проекта выбыла Кидман из-за осложнений травмы колена, полученной во время съёмок «Мулен Руж» (2001). Дэвид Финчер предложил студии закрыть проект, однако студийные боссы решили по-другому. Главная роль была предложена Джоди Фостер, которая в то время должна была возглавить жюри Каннского кинофестиваля. Джоди отказалась от поездки в Канны, для того чтобы поработать вместе с Финчером, у которого она должна была сыграть еще в «Игре» (1997), но её роль в конечном итоге была переписана и досталась Шону Пенну. У Фостер было всего лишь девять дней, для того чтобы подготовиться к своей роли.
Дэйви Чейз проходила пробы на роль Сары.
Во время съёмок, Джоди Фостер была беременна. Так как съёмки затянулись, то студии пришлось подождать, пока Фостер родит своего второго ребенка, и после этого сможет вернуться для пересъёмок.
Роль Рауля была предложена Мэйнарду Джеймсу Кинэну.
Голос подруги Стивена Олтмана принадлежит Николь Кидман.
Эндрю Кевин Уолкер, сыгравший соседа напротив дома Мэг, написал сценарий фильма «Семь» (1995), режиссером которого был Дэвид Финчер.
В данном фильме сыграли три актера, до этого поставившие свои собственные фильмы: Джоди Фостер, Форест Уитакер и Дуайт Йоакам.
Изначально Сандра Буллок должна была сыграть главную роль.
Начальные титры были сделаны компаниями «The Picture Mill» и «ComputerCafe». На их создание ушло около года.
Изначально Адам Голдберг должен был сыграть Джуниора.
Дариус Хонджи покинул проект после двух недель съёмок. Однако в титрах он всё же числится, как один из операторов фильма.
Идея фильма возникла у Дэвида Кеппа, после того как он прочитал статью о «безопасных комнатах» в «The New York Times» и застрял в лифте дома, где он живет.
По словам Дэвида Финчера, во время съёмок Кристен Стюарт выросла более чем на три дюйма (7,6 сантиметра). Она была ниже Джоди Фостер, когда начались съёмки, и выше неё, когда съёмки подходили к концу.
Все сцены, происходящие внутри дома, снимались в хронологическом порядке точно так же, как они идут в фильме.
Сотовый телефон Мэг (Джоди Фостер) — Nokia 8890.
Дэвид Кепп написал черновой вариант сценария за шесть дней.
На 15-й минуте Джоди Фостер после прочтения инструкции к сигнализации бросает очки на прикроватную тумбочку. Дужки у очков сведены вместе. На 19-й минуте, очки на тумбочке лежат в другом положении с разведенными до конца дужками.

MediaInfo

Общее
Уникальный идентификатор : 245013146274445815688703034103838971872 (0xB853D0C5C718A90E9E40ED38316E97E0)
Полное имя : Panic.Room.2002.1080p.WEB-DL.5xRus.Ukr.Eng.-whip93.mkv
Формат : Matroska
Версия формата : Version 4 / Version 2
Размер файла : 7,72 Гбайт
Продолжительность : 1 ч. 47 м.
Режим общего битрейта : Переменный
Общий поток : 10,3 Мбит/сек
Название фильма : Комната страха | Panic Room (2002) - Release by whip93
Дата кодирования : UTC 2017-09-18 07:29:28
Программа кодирования : mkvmerge v6.1.0 ('Old Devil') built on Mar 4 2013 09:10:42
Библиотека кодирования : libebml v1.3.0 + libmatroska v1.4.0
Видео
Идентификатор : 1
Формат : AVC
Формат/Информация : Advanced Video Codec
Профиль формата : High@L4.0
Параметр CABAC формата : Да
Параметр ReFrames формата : 4 кадра
Идентификатор кодека : V_MPEG4/ISO/AVC
Продолжительность : 1 ч. 47 м.
Вид битрейта : Переменный
Битрейт : 7279 Кбит/сек
Максимальный битрейт : 15,0 Мбит/сек
Ширина : 1920 пикселей
Высота : 800 пикселей
Соотношение сторон : 2,40:1
Режим частоты кадров : Постоянный
Частота кадров : 25,000 кадров/сек
Цветовое пространство : YUV
Субдискретизация насыщенности : 4:2:0
Битовая глубина : 8 бит
Тип развёртки : Прогрессивная
Бит/(Пиксели*Кадры) : 0.190
Размер потока : 5,46 Гбайт (71%)
Заголовок : Mastered by whip93
Библиотека кодирования : x264 core 148 r2623 d5b2374
Настройки программы : cabac=1 / ref=4 / deblock=1:-1:-1 / analyse=0x3:0x133 / me=umh / subme=9 / psy=1 / psy_rd=1.00:0.15 / mixed_ref=1 / me_range=24 / chroma_me=1 / trellis=2 / 8x8dct=1 / cqm=0 / deadzone=21,11 / fast_pskip=1 / chroma_qp_offset=-3 / threads=25 / lookahead_threads=4 / sliced_threads=0 / nr=150 / decimate=1 / interlaced=0 / bluray_compat=0 / constrained_intra=0 / bframes=8 / b_pyramid=2 / b_adapt=2 / b_bias=0 / direct=3 / weightb=1 / open_gop=0 / weightp=2 / keyint=120 / keyint_min=61 / scenecut=0 / intra_refresh=0 / rc_lookahead=120 / rc=crf / mbtree=1 / crf=18.0 / qcomp=0.60 / qpmin=0 / qpmax=69 / qpstep=4 / vbv_maxrate=15000 / vbv_bufsize=31250 / crf_max=0.0 / nal_hrd=vbr / filler=0 / ip_ratio=1.40 / aq=3:1.00
Язык : English
Default : Да
Forced : Нет
Основные цвета : BT.709
Характеристики трансфера : BT.709
Коэффициенты матрицы : BT.709
Аудио #1
Идентификатор : 2
Формат : AC-3
Формат/Информация : Audio Coding 3
Расширение режима : CM (complete main)
Параметр Endianness формата : Big
Идентификатор кодека : A_AC3
Продолжительность : 1 ч. 47 м.
Вид битрейта : Постоянный
Битрейт : 448 Кбит/сек
Каналы : 6 каналов
Расположение каналов : Front: L C R, Side: L R, LFE
Частота : 48,0 КГц
Битовая глубина : 16 бит
Метод сжатия : С потерями
Размер потока : 344 Мбайт (4%)
Заголовок : Dub (R5)
Язык : Russian
Default : Да
Forced : Нет
Аудио #2
Идентификатор : 3
Формат : AC-3
Формат/Информация : Audio Coding 3
Расширение режима : CM (complete main)
Параметр Endianness формата : Big
Идентификатор кодека : A_AC3
Продолжительность : 1 ч. 47 м.
Вид битрейта : Постоянный
Битрейт : 448 Кбит/сек
Каналы : 6 каналов
Расположение каналов : Front: L C R, Side: L R, LFE
Частота : 48,0 КГц
Битовая глубина : 16 бит
Метод сжатия : С потерями
Размер потока : 344 Мбайт (4%)
Заголовок : MVO (Superbit)
Язык : Russian
Default : Нет
Forced : Нет
Аудио #3
Идентификатор : 4
Формат : AC-3
Формат/Информация : Audio Coding 3
Расширение режима : CM (complete main)
Параметр Endianness формата : Big
Идентификатор кодека : A_AC3
Продолжительность : 1 ч. 47 м.
Вид битрейта : Постоянный
Битрейт : 448 Кбит/сек
Каналы : 6 каналов
Расположение каналов : Front: L C R, Side: L R, LFE
Частота : 48,0 КГц
Битовая глубина : 16 бит
Метод сжатия : С потерями
Размер потока : 344 Мбайт (4%)
Заголовок : AVO (Гаврилов)
Язык : Russian
Default : Нет
Forced : Нет
Аудио #4
Идентификатор : 5
Формат : AC-3
Формат/Информация : Audio Coding 3
Расширение режима : CM (complete main)
Параметр Endianness формата : Big
Идентификатор кодека : A_AC3
Продолжительность : 1 ч. 47 м.
Вид битрейта : Постоянный
Битрейт : 448 Кбит/сек
Каналы : 6 каналов
Расположение каналов : Front: L C R, Side: L R, LFE
Частота : 48,0 КГц
Битовая глубина : 16 бит
Метод сжатия : С потерями
Размер потока : 344 Мбайт (4%)
Заголовок : AVO (Живов)
Язык : Russian
Default : Нет
Forced : Нет
Аудио #5
Идентификатор : 6
Формат : AC-3
Формат/Информация : Audio Coding 3
Расширение режима : CM (complete main)
Параметр Endianness формата : Big
Идентификатор кодека : A_AC3
Продолжительность : 1 ч. 47 м.
Вид битрейта : Постоянный
Битрейт : 384 Кбит/сек
Каналы : 6 каналов
Расположение каналов : Front: L C R, Side: L R, LFE
Частота : 48,0 КГц
Битовая глубина : 16 бит
Метод сжатия : С потерями
Размер потока : 295 Мбайт (4%)
Заголовок : AVO (Гаевский)
Язык : Russian
Default : Нет
Forced : Нет
Аудио #6
Идентификатор : 7
Формат : AC-3
Формат/Информация : Audio Coding 3
Расширение режима : CM (complete main)
Параметр Endianness формата : Big
Идентификатор кодека : A_AC3
Продолжительность : 1 ч. 47 м.
Вид битрейта : Постоянный
Битрейт : 192 Кбит/сек
Каналы : 2 канала
Расположение каналов : Front: L R
Частота : 48,0 КГц
Битовая глубина : 16 бит
Метод сжатия : С потерями
Размер потока : 147 Мбайт (2%)
Заголовок : MVO (ТРК "Украïна")
Язык : Ukrainian
Default : Нет
Forced : Нет
Аудио #7
Идентификатор : 8
Формат : AC-3
Формат/Информация : Audio Coding 3
Расширение режима : CM (complete main)
Параметр Endianness формата : Big
Идентификатор кодека : A_AC3
Продолжительность : 1 ч. 47 м.
Вид битрейта : Постоянный
Битрейт : 448 Кбит/сек
Каналы : 6 каналов
Расположение каналов : Front: L C R, Side: L R, LFE
Частота : 48,0 КГц
Битовая глубина : 16 бит
Метод сжатия : С потерями
Размер потока : 344 Мбайт (4%)
Заголовок : Original
Язык : English
Default : Нет
Forced : Нет
Текст #1
Идентификатор : 9
Формат : UTF-8
Идентификатор кодека : S_TEXT/UTF8
Идентификатор кодека/Информация : UTF-8 Plain Text
Заголовок : v.1 (Censored)
Язык : Russian
Default : Нет
Forced : Нет
Текст #2
Идентификатор : 10
Формат : UTF-8
Идентификатор кодека : S_TEXT/UTF8
Идентификатор кодека/Информация : UTF-8 Plain Text
Заголовок : v.2 (Uncensored)
Язык : Russian
Default : Нет
Forced : Нет
Текст #3
Идентификатор : 11
Формат : UTF-8
Идентификатор кодека : S_TEXT/UTF8
Идентификатор кодека/Информация : UTF-8 Plain Text
Заголовок : Original (SDH)
Язык : English
Default : Нет
Forced : Нет
Меню
00:00:00.000 : en:Start
00:02:28.711 : en:Townstone Fixer-Upper
00:06:17.431 : en:The Panic Room
00:14:46.111 : en:The Break-in
00:19:34.191 : en:"We Got a Problem"
00:24:43.511 : en:Intruder Alert
00:25:47.711 : en:"People in the House"
00:30:43.551 : en:The PA System
00:40:48.511 : en:Sending Them a Message
00:46:08.231 : en:Return to Sender
00:49:01.271 : en:S.O.S.
00:53:36.151 : en:Cell Phone Retrieval
00:57:23.231 : en:Cutting Into the Main Line
01:02:17.991 : en:Dizzy and Hungry
01:02:56.711 : en:Giving Up
01:05:42.111 : en:50/50 Split
01:06:39.711 : en:Stephen Drops By
01:09:03.711 : en:"Open the Door!"
01:10:23.791 : en:Sarah Goes Into Shock
01:11:45.031 : en:Insulin Run
01:14:34.431 : en:Sticky Fingers
01:16:28.231 : en:"Give Her the Shot!"
01:23:12.951 : en:The Police Arrive
01:29:23.671 : en:Blinding the System
01:34:42.791 : en:Exactly Where She Wants Them
01:37:42.591 : en:"Let My Daughter Go"
01:38:38.871 : en:Raoul Gets Hammered
01:39:48.191 : en:"You're Gonna Be All Right"

Скриншоты

[Профиль] [ЛС]
Показать сообщения:    

Текущее время: Сегодня 20:36

Часовой пояс: GMT



Вы не можете начинать темы
Вы не можете отвечать на сообщения
Вы не можете редактировать свои сообщения
Вы не можете удалять свои сообщения
Вы не можете голосовать в опросах
Вы не можете прикреплять файлы к сообщениям
Вы не можете скачивать файлы