Коммуна / Kollektivet (2016) BDRip 720p | Лицензия

 
Автор Сообщение

Russian Mafia ®

Пол:

Стаж: 1 год 8 месяцев

Сообщений: 4256



Награды: 10 (Подробнее)

Top Releaser 3 (Количество: 1) Mega Seeder 3 (Количество: 1) Mega Seeder 1 (Количество: 1)
Торрент-статистика

Создавать темы 15-Окт-2016 13:20

[Цитировать]

Информация о фильме
Название: Коммуна
Оригинальное название: Kollektivet
Год выхода: 2016
Жанр: Драма
Режиссер: Томас Винтерберг
В ролях: Ульрих Томсен, Фарес Фарес, Трине Дюрхольм, Хелена Рейнгорд Ньюманн, Джули Аньет Ванг, Ларс Ранте, Марта Софи Вольстром Хансен, Оле Дюпон, Маунус Миллан, Энн Грай Хенингсен
О фильме:
В огромной вилле, расположенной в фешенебельном районе Копенгагена, Эрик и его жена Анна, воплощая давнюю мечту, создают коммуну близких по духу людей, готовых жить под одной крышей. Общие интересы, беседы, вечеринки полны эйфории и дарят ощущение подлинного единства. До тех пор, пока Эрик не приводит в дом свою новую возлюбленную…

Награды

Берлинский кинофестиваль, 2016 год
Победитель (1)
Серебряный Медведь за лучшую женскую роль ( Трине Дюрхольм )
Номинации (1):
Золотой Медведь)

Страна: Дания, Швеция, Нидерланды
Студия: Danmarks Radio (DR), Det Danske Filminstitut, Film i Väst, Toolbox Film
Продолжительность: 01:51:42
Перевод: Профессиональный (полное дублирование)[Дубляж, Позитив по заказу РР, DVD R5]
Файл
Качество: BDRip 720p
Формат: MKV
Кодек: MPEG-4 AVC
Видео: 1280x546 (2.35:1), 24 fps, MPEG-4 AVC ~6634 kbps avg, 0.396 bit/pixel
Аудио: AC3, 48 kHz, 6 ch, ~448.00 kbps avg | русский | Профессиональный (полное дублирование)[Дубляж, Позитив по заказу РР, DVD R5]
Аудио: AC3, 48 kHz, 6 ch, ~640.00 kbps avg | датский | Оригинал
Субтитры: Русские, английские, датские
Семпл

Инфо-файл

Общее
Уникальный идентификатор : 182387214757051590171385430641543378693 (0x89367FF558028B0088CE79E8DA4A7705)
Полное имя : D:Kollektivet.2016.720p.BluRay.Rus.Dan.HDCLUB-SbR.mkv
Формат : Matroska
Версия формата : Version 4 / Version 2
Размер файла : 6,15 Гбайт
Продолжительность : 1 ч. 51 м.
Общий поток : 7879 Кбит/сек
Дата кодирования : UTC 2016-10-15 07:41:14
Программа кодирования : mkvmerge v9.4.2 ('So High') 64bit
Библиотека кодирования : libebml v1.3.4 + libmatroska v1.4.5
DURATION : 01:51:41.408000000
NUMBER_OF_FRAMES : 209419
NUMBER_OF_BYTES : 375278848
_STATISTICS_WRITING_APP : mkvmerge v9.4.2 ('So High') 64bit
_STATISTICS_WRITING_DATE_UTC : 2016-10-15 07:41:14
_STATISTICS_TAGS : BPS DURATION NUMBER_OF_FRAMES NUMBER_OF_BYTES
Видео
Идентификатор : 1
Формат : AVC
Формат/Информация : Advanced Video Codec
Профиль формата : High@L4.1
Параметр CABAC формата : Да
Параметр ReFrames формата : 9 кадров
Идентификатор кодека : V_MPEG4/ISO/AVC
Продолжительность : 1 ч. 51 м.
Битрейт : 6634 Кбит/сек
Ширина : 1280 пикселей
Высота : 546 пикселей
Соотношение сторон : 2,35:1
Режим частоты кадров : Постоянный
Частота кадров : 24,000 кадра/сек
Цветовое пространство : YUV
Субдискретизация насыщенности : 4:2:0
Битовая глубина : 8 бит
Тип развёртки : Прогрессивная
Бит/(Пиксели*Кадры) : 0.396
Размер потока : 5,18 Гбайт (84%)
Заголовок : Kollektivet 2016
Библиотека кодирования : x264 core 146 r2538kMod 121396c
Настройки программы : cabac=1 / ref=9 / deblock=1:-3:-3 / analyse=0x3:0x133 / me=umh / subme=11 / psy=1 / fade_compensate=0.00 / psy_rd=1.00:0.00 / mixed_ref=1 / me_range=32 / chroma_me=1 / trellis=2 / 8x8dct=1 / cqm=0 / deadzone=21,11 / fast_pskip=1 / chroma_qp_offset=-2 / threads=12 / lookahead_threads=3 / sliced_threads=0 / nr=0 / decimate=1 / interlaced=0 / bluray_compat=0 / constrained_intra=0 / fgo=0 / bframes=10 / b_pyramid=2 / b_adapt=2 / b_bias=0 / direct=3 / weightb=1 / open_gop=0 / weightp=2 / keyint=250 / keyint_min=24 / scenecut=40 / intra_refresh=0 / rc=crf / mbtree=0 / crf=16.0000 / qcomp=0.65 / qpmin=0 / qpmax=69 / qpstep=4 / ip_ratio=1.25 / pb_ratio=1.20 / aq=1:0.60
Язык : Danish
Default : Да
Forced : Нет
DURATION : 01:51:42.459000000
NUMBER_OF_FRAMES : 160859
NUMBER_OF_BYTES : 5687276214
_STATISTICS_WRITING_APP : mkvmerge v9.4.2 ('So High') 64bit
_STATISTICS_WRITING_DATE_UTC : 2016-10-15 07:41:14
_STATISTICS_TAGS : BPS DURATION NUMBER_OF_FRAMES NUMBER_OF_BYTES
Аудио #1
Идентификатор : 2
Формат : AC-3
Формат/Информация : Audio Coding 3
Расширение режима : CM (complete main)
Параметр Endianness формата : Big
Идентификатор кодека : A_AC3
Продолжительность : 1 ч. 51 м.
Вид битрейта : Постоянный
Битрейт : 448 Кбит/сек
Каналы : 6 каналов
Расположение каналов : Front: L C R, Side: L R, LFE
Частота : 48,0 КГц
Метод сжатия : С потерями
Размер потока : 358 Мбайт (6%)
Заголовок : AC3 5.1 @ 448 kbps - Дубляж, Позитив по заказу РР, DVD
Язык : Russian
Default : Да
Forced : Нет
Аудио #2
Идентификатор : 3
Формат : AC-3
Формат/Информация : Audio Coding 3
Расширение режима : CM (complete main)
Параметр Endianness формата : Big
Идентификатор кодека : A_AC3
Продолжительность : 1 ч. 51 м.
Вид битрейта : Постоянный
Битрейт : 640 Кбит/сек
Каналы : 6 каналов
Расположение каналов : Front: L C R, Side: L R, LFE
Частота : 48,0 КГц
Метод сжатия : С потерями
Размер потока : 511 Мбайт (8%)
Заголовок : AC3 5.1 @ 640 kbps
Язык : Danish
Default : Нет
Forced : Нет
Текст #1
Идентификатор : 4
Формат : ASS
Идентификатор кодека : S_TEXT/ASS
Идентификатор кодека/Информация : Advanced Sub Station Alpha
Метод сжатия : Без потерь
Заголовок : ASS
Язык : Russian
Default : Нет
Forced : Нет
Текст #2
Идентификатор : 5
Формат : UTF-8
Идентификатор кодека : S_TEXT/UTF8
Идентификатор кодека/Информация : UTF-8 Plain Text
Язык : Russian
Default : Нет
Forced : Нет
Текст #3
Идентификатор : 6
Формат : UTF-8
Идентификатор кодека : S_TEXT/UTF8
Идентификатор кодека/Информация : UTF-8 Plain Text
Язык : English
Default : Нет
Forced : Нет
Текст #4
Идентификатор : 7
Формат : UTF-8
Идентификатор кодека : S_TEXT/UTF8
Идентификатор кодека/Информация : UTF-8 Plain Text
Язык : Danish
Default : Нет
Forced : Нет
Меню
00:00:00.000 : en:00:00:00.000
00:09:59.542 : en:00:09:59.542
00:20:00.000 : en:00:20:00.000
00:29:59.958 : en:00:29:59.958
00:39:59.792 : en:00:39:59.792
00:49:59.542 : en:00:49:59.542
00:59:59.625 : en:00:59:59.625
01:09:59.583 : en:01:09:59.583
01:19:59.792 : en:01:19:59.792
01:29:59.583 : en:01:29:59.583
01:40:00.000 : en:01:40:00.000

Скриншоты

Релиз от:
[Профиль] [ЛС]
Показать сообщения:    

Текущее время: Сегодня 18:38

Часовой пояс: GMT



Вы не можете начинать темы
Вы не можете отвечать на сообщения
Вы не можете редактировать свои сообщения
Вы не можете удалять свои сообщения
Вы не можете голосовать в опросах
Вы не можете прикреплять файлы к сообщениям
Вы не можете скачивать файлы