Коммандо / Commando (2013) HDRip | L

 
Автор Сообщение

sergej644 ®

Пол:

Стаж: 4 года 11 месяцев

Сообщений: 6043

Откуда: Soviet Union



Награды: Нет

Торрент-статистика

Создавать темы 12-Дек-2014 19:59

[Цитировать]

Информация о фильме
Название: Коммандо
Оригинальное название: Commando
Год выхода: 2013
Жанр: Боевик
Режиссер: Дилип Гхош
В ролях: Видьют Джамвал, Джайдип Ахлават, Сукхвиндер Чахал, Пуджа Чопра, Даршан Джаривала, Ом Пракаш
О фильме:
Потерпев крушение над китайской территорией, капитан Каранвир Догра, попадает в плен. Индийское правительство отрицает его существование, так как боится политического скандала. Каран бежит от конвоя и отправляется в Химачал Прадеш, на границе Лепча, намереваясь добраться до своей базы в Патанкоте. Пересекая границу с Пенджабом, он встречает девушку, Симран, которая просит у него защиты...

Страна: Индия
Продолжительность: 02:04:35
Переводы: Любительский многоголосый, закадровый (IndianCinemaGroup)
Файл
Кодек: XviD
Качество: HDRip
Видео: ~1907 Kb/s,720x304
Звук: AC3 5.1, 448 Kb/s
Субтитры: Отсутствуют

Скриншоты

-

MediaInfo

Код:
General
Complete name                  : Commando.2013.HDRip.NNM-CLUB.avi
Format                         : AVI
Format/Info                    : Audio Video Interleave
Format profile                 : OpenDML
File size                      : 2.06 GiB
Duration                       : 2h 4mn
Overall bit rate               : 2 368 Kbps
Writing application            : VirtualDubModRus 1.5.10.2 (build 2542/release)
Writing library                : VirtualDubMod build 2542/release
Video
ID                             : 0
Format                         : MPEG-4 Visual
Format profile                 : Advanced Simple@L5
Format settings, BVOP          : Yes
Format settings, QPel          : No
Format settings, GMC           : No warppoints
Format settings, Matrix        : Custom
Codec ID                       : XVID
Codec ID/Hint                  : XviD
Duration                       : 2h 4mn
Bit rate                       : 1 907 Kbps
Width                          : 720 pixels
Height                         : 304 pixels
Display aspect ratio           : 2.35:1
Frame rate                     : 23.976 fps
Color space                    : YUV
Chroma subsampling             : 4:2:0
Bit depth                      : 8 bits
Scan type                      : Progressive
Compression mode               : Lossy
Bits/(Pixel*Frame)             : 0.363
Stream size                    : 1.66 GiB (81%)
Writing library                : XviD 1.2.1 (UTC 2008-12-04)
Audio
ID                             : 1
Format                         : AC-3
Format/Info                    : Audio Coding 3
Mode extension                 : CM (complete main)
Format settings, Endianness    : Big
Codec ID                       : 2000
Duration                       : 2h 4mn
Bit rate mode                  : Constant
Bit rate                       : 448 Kbps
Channel(s)                     : 6 channels
Channel positions              : Front: L C R, Side: L R, LFE
Sampling rate                  : 48.0 KHz
Bit depth                      : 16 bits
Compression mode               : Lossy
Stream size                    : 399 MiB (19%)
Alignment                      : Split accross interleaves
Interleave, duration           : 42 ms (1.00 video frame)
Interleave, preload duration   : 500 ms
Title                          : Russian
--
[Профиль] [ЛС]
Кто просматривает тему:

Форум Тема Автор Размер
Фильмы (HD Rips | 720p, 1080p) Коммандос / Commando (1985) BDRip [H.264] sergej644 4.23 GB
Показать сообщения:    

Текущее время: Сегодня 20:32

Часовой пояс: GMT



Вы не можете начинать темы
Вы не можете отвечать на сообщения
Вы не можете редактировать свои сообщения
Вы не можете удалять свои сообщения
Вы не можете голосовать в опросах
Вы не можете прикреплять файлы к сообщениям
Вы не можете скачивать файлы