Коммандос / Commando (1985) BDRip [H.264]

 
Автор Сообщение

sergej644 ®

Пол:

Стаж: 4 года 11 месяцев

Сообщений: 6038

Откуда: Soviet Union



Награды: Нет

Торрент-статистика

Создавать темы 16-Окт-2014 10:49

[Цитировать]

-Коммандос / Commando (1985) BDRip [H.264]
« Somewhere... somehow... someone's going to pay! »
- Год выпуска: 1985
Производство: США | 20th Century Fox Film Corporation, SLM Production Group, Silver Pictures
Жанр: Боевик, Триллер
Режиссер: Марк Л. Лестер
Продюсер: Джоэл Силвер, Стефани Броди, Роберт Косберг
Актеры: Арнольд Шварценеггер, Рей Дон Чонг, Дэн Хедайя, Вернон Уэллс, Джеймс Олсон, Дэвид Патрик Келли, Алисса Милано, Билл Дьюк, Дрю Снайдер, Шэрон Уайатт, Майкл ДеЛано, Боб Майнор, Майкл Адамс, Гэри Сервантес, Ленни Джулиано
Описание фильма: Бывший командир спецотряда, участвовавшего в секретных операциях на Ближнем Востоке, СССР и Центральной Америке, полковник в отставке Джон Матрикс, под другим именем, живёт в большом доме, вдали от города, вместе со своей одиннадцатилетней дочерью Дженни, пока её не похищает бывший товарищ Джона…
Перевод: Профессиональный многоголосый, авторский
Вид субтитров: Вшитые отключаемые
Язык субтитров: Русский, английский- - Дата мировой премьеры: 4 октября 1985
Дата выхода DVD релиза: 14 февраля 2006, «Гемини-Фильм»
Продолжительность: 01:30:16
Возраст 12+: Зрителям, достигшим 12 лет
Рейтинг MPAA R: Лицам до 17 лет обязательно присутствие взрослого
Качество видео: BDRip [H.264]
Видео: MPEG-4 AVC/H.264, 3500 Kbps, 1024 x 556
Аудио 1: Русский AC3 5.1, 640 Kbps, 48.0 KHz (Многоголосый закадровый) Киномания
Аудио 2: Русский AC3 5.1, 640 Kbps, 48.0 KHz (Многоголосый закадровый) ОРТ
Аудио 3: Русский AC3 5.1, 640 Kbps, 48.0 KHz (Одноголосый закадровый) Д. Пучков
Аудио 4: Русский AC3 5.1, 640 Kbps, 48.0 KHz (Одноголосый закадровый) А. Гаврилов
Аудио 5: Английский AC3 5.1, 640 Kbps, 48.0 KHz (Оригинал)-

Blu-ray

MediaInfo

Общее
Полное имя : Коммандос.mkv
Формат : Matroska
Версия формата : Version 1
Размер файла : 4,23 Гбайт
Продолжительность : 1 ч. 30 м.
Общий поток : 6704 Кбит/сек
Дата кодирования : UTC 2014-10-16 05:22:54
Программа кодирования : mkvmerge v2.4.1 ('Use Me') built on Dec 5 2008 18:30:05
Библиотека кодирования : libebml v0.7.7 + libmatroska v0.8.1
Видео
Идентификатор : 1
Формат : AVC
Формат/Информация : Advanced Video Codec
Профиль формата : [url=mailto:High@L4.1]High@L4.1[/url]
Параметр CABAC формата : Да
Параметр ReFrames формата : 10 кадров
Идентификатор кодека : V_MPEG4/ISO/AVC
Продолжительность : 1 ч. 30 м.
Битрейт : 3500 Кбит/сек
Ширина : 1024 пикселя
Высота : 556 пикселей
Соотношение сторон : 1,85:1
Режим частоты кадров : Постоянный
Частота кадров : 23,976 кадра/сек
Цветовое пространство : YUV
Субдискретизация насыщенности : 4:2:0
Битовая глубина : 8 бит
Тип развёртки : Прогрессивная
Бит/(Пиксели*Кадры) : 0.256
Размер потока : 2,13 Гбайт (50%)
Заголовок : Коммандос (1985)
Библиотека кодирования : x264 core 129 r2230 1cffe9f
Настройки программы : cabac=1 / ref=10 / deblock=1:-3:-3 / analyse=0x3:0x133 / me=umh / subme=10 / psy=1 / psy_rd=1.00:0.10 / mixed_ref=1 / me_range=48 / chroma_me=1 / trellis=2 / 8x8dct=1 / cqm=0 / deadzone=21,11 / fast_pskip=0 / chroma_qp_offset=-3 / threads=6 / lookahead_threads=1 / sliced_threads=0 / nr=0 / decimate=1 / interlaced=0 / bluray_compat=0 / constrained_intra=0 / bframes=5 / b_pyramid=2 / b_adapt=2 / b_bias=0 / direct=3 / weightb=1 / open_gop=0 / weightp=2 / keyint=240 / keyint_min=22 / scenecut=40 / intra_refresh=0 / rc_lookahead=40 / rc=2pass / mbtree=1 / bitrate=3500 / ratetol=1.0 / qcomp=0.60 / qpmin=10 / qpmax=51 / qpstep=4 / cplxblur=20.0 / qblur=0.5 / ip_ratio=1.40 / aq=1:1.00
Язык : English
Аудио #1
Идентификатор : 2
Формат : AC-3
Формат/Информация : Audio Coding 3
Расширение режима : CM (complete main)
Параметр Endianness формата : Big
Идентификатор кодека : A_AC3
Продолжительность : 1 ч. 30 м.
Вид битрейта : Постоянный
Битрейт : 640 Кбит/сек
Каналы : 6 каналов
Расположение каналов : Front: L C R, Side: L R, LFE
Частота : 48,0 КГц
Битовая глубина : 16 бит
Метод сжатия : С потерями
Размер потока : 413 Мбайт (10%)
Заголовок : AC3 (Многоголосый) Киномания
Язык : Russian
Аудио #2
Идентификатор : 3
Формат : AC-3
Формат/Информация : Audio Coding 3
Расширение режима : CM (complete main)
Параметр Endianness формата : Big
Идентификатор кодека : A_AC3
Продолжительность : 1 ч. 30 м.
Вид битрейта : Постоянный
Битрейт : 640 Кбит/сек
Каналы : 6 каналов
Расположение каналов : Front: L C R, Side: L R, LFE
Частота : 48,0 КГц
Битовая глубина : 16 бит
Метод сжатия : С потерями
Размер потока : 413 Мбайт (10%)
Заголовок : AC3 (Многоголосый) ОРТ
Язык : Russian
Аудио #3
Идентификатор : 4
Формат : AC-3
Формат/Информация : Audio Coding 3
Расширение режима : CM (complete main)
Параметр Endianness формата : Big
Идентификатор кодека : A_AC3
Продолжительность : 1 ч. 30 м.
Вид битрейта : Постоянный
Битрейт : 640 Кбит/сек
Каналы : 6 каналов
Расположение каналов : Front: L C R, Side: L R, LFE
Частота : 48,0 КГц
Битовая глубина : 16 бит
Метод сжатия : С потерями
Размер потока : 413 Мбайт (10%)
Заголовок : AC3 (Одноголосый) Д. Пучков
Язык : Russian
Аудио #4
Идентификатор : 5
Формат : AC-3
Формат/Информация : Audio Coding 3
Расширение режима : CM (complete main)
Параметр Endianness формата : Big
Идентификатор кодека : A_AC3
Продолжительность : 1 ч. 30 м.
Вид битрейта : Постоянный
Битрейт : 640 Кбит/сек
Каналы : 6 каналов
Расположение каналов : Front: L C R, Side: L R, LFE
Частота : 48,0 КГц
Битовая глубина : 16 бит
Метод сжатия : С потерями
Размер потока : 413 Мбайт (10%)
Заголовок : AC3 (Одноголосый) А. Гаврилов
Язык : Russian
Аудио #5
Идентификатор : 6
Формат : AC-3
Формат/Информация : Audio Coding 3
Расширение режима : CM (complete main)
Параметр Endianness формата : Big
Идентификатор кодека : A_AC3
Продолжительность : 1 ч. 30 м.
Вид битрейта : Постоянный
Битрейт : 640 Кбит/сек
Каналы : 6 каналов
Расположение каналов : Front: L C R, Side: L R, LFE
Частота : 48,0 КГц
Битовая глубина : 16 бит
Метод сжатия : С потерями
Размер потока : 413 Мбайт (10%)
Заголовок : AC3 (Оригинал)
Язык : English
Текст #1
Идентификатор : 7
Формат : UTF-8
Идентификатор кодека : S_TEXT/UTF8
Идентификатор кодека/Информация : UTF-8 Plain Text
Заголовок : Русские
Язык : Russian
Текст #2
Идентификатор : 8
Формат : UTF-8
Идентификатор кодека : S_TEXT/UTF8
Идентификатор кодека/Информация : UTF-8 Plain Text
Заголовок : Английские
Язык : English

Дополнительно

● По словам Уэллса, костюмеры нашли ему одежду на несколько размеров меньше, дабы он выглядел ещё более мерзко. Сам Вернон шуточно называет Беннета «Фредди Меркьюрри на стероидах».
● К фильму задумывался сиквел, но так и не был снят из-за незаинтересованности Шварценеггера. Сценарий несостоявшегося сиквела был переписан и превратился в фильм «Крепкий орешек», снятый в 1988 году и подаривший миру нового супергероя (Брюс Уиллис).
● Просторный супермаркет Sherman Oaks Galleria, в котором как Тарзан летал герой Шварценеггера, потом будет снят и в другом его фильме - в «Терминаторе 2».
● Песня, звучащая в концовке, это We Fight for Love (иногда упоминается ещё как Somewhere, Somehow, Someone`s Gotta Pay) группы Power Station.
● Изначально предполагалось, что фильм будет снимать режиссёр Джон МакТирнан, но он отказался. А спустя два года, в 1987, он согласился снять фильм «Хищник» также со Шварценеггером в главной роли.
● Актёр Вернон Уэллс (Беннетт) пробовался на роль полковника Мэтрикса.
● Дом, в котором происходит финальная перестрелка между Мэтриксом и Ариусом, - это тот же дом, в котором снималась заключительная перестрелка между Фоли и Мэйтландом в фильме «Полицейский из Беверли-Хиллз».
● В качестве оператора радара снялся известный в будущем актёр Билл Пэкстон.
● Из режиссёрской версии картины становится известно, что мать Дженни умерла при родах.
● Арнольд согласился исполнить главную роль, по его словам это был первый сценарий со времён успеха «Терминатора», где ему не предлагали вновь стать роботом.
● Вернон Уэллс вне съёмочной площадки был очень обаятельным и приятным парнем, тем более удивительным выглядело его перевоплощение в изувера Беннета. Однажды, после съёмок сцены драки на ножах, Лестер сказал следующее: «Закончили. И не подпускайте ко мне Беннета».
● Арнольд стремился самостоятельно исполнять все трюки, не используя дублёра, даже в известной сцене, где на скорости 65 миль в час приходилось висеть, держась за шасси самолёта. Цена? Выбитое плечо и несколько швов на руке и локте.
-Скриншоты:
[Профиль] [ЛС]
Кто просматривает тему:

Форум Тема Автор Размер
Фильмы 2013 года Коммандо / Commando (2013) HDRip | L sergej644 2.06 GB
Показать сообщения:    

Текущее время: Сегодня 12:34

Часовой пояс: GMT



Вы не можете начинать темы
Вы не можете отвечать на сообщения
Вы не можете редактировать свои сообщения
Вы не можете удалять свои сообщения
Вы не можете голосовать в опросах
Вы не можете прикреплять файлы к сообщениям
Вы не можете скачивать файлы