Комедия ужасов / The Comedy of Terrors (Жак Турнье )[1964, Комедия, Ужасы, HDTVRip] | P2

 
Автор Сообщение

К@питан ®

Пол:

Стаж: 5 лет 6 месяцев

Сообщений: 6092

Откуда: Soviet Union



Награды: Нет

Торрент-статистика

Создавать темы 09-Июл-2015 20:38

[Цитировать]

--Комедия ужасов / The Comedy of Terrors Информация о фильме
Название: Комедия ужасов
Оригинальное название: The Comedy of Terrors
Жанр: Комедия, Ужасы
Год выхода: 1964
Режиссёр: Жак Турнье
В ролях:
Винсент Прайс, Питер Лорре, Борис Карлофф, Джойс Джеймсон, Джо Е. Браун, Беверли Пауэрс
О фильме:
Владельца похоронного бюро, у которого долгое время не было «клиентов», вынуждают заплатить арендную плату за год. Чтобы достать деньги, он начинает убивать людей, и дела у его конторы начинают идти лучше.

Выпущено: США / American International Pictures (AIP)
Продолжительность: 01:23:08
Перевод: Профессиональный (двухголосый закадровый) НТВ+
Файл
Формат: AVI
Качество: HDTVRip [Исходник 1080i]
Видео: 720x304 (2.37:1), 25 fps, XviD build 50 ~2361 kbps avg, 0.43 bit/pixel
Аудио: 48 kHz, AC3 Dolby Digital, 2/0 (L,R) ch, ~192 kbps
Семпл

Media Info

Комедия ужасов - The Comedy of Terrors [Rip by Ledy_X].avi
Format : AVI
Format/Info : Audio Video Interleave
File size : 1.42 GiB
Duration : 1h 19mn
Overall bit rate : 2 563 Kbps
Movie name : Комедия ужасов - The Comedy of Terrors [Rip by Ledy_X]
Director : Rip by Ledy_X
Video
ID : 0
Format : MPEG-4 Visual
Format profile : Advanced Simple@L5
Format settings, BVOP : 1
Format settings, QPel : No
Format settings, GMC : No warppoints
Format settings, Matrix : Default (MPEG)
Codec ID : XVID
Codec ID/Hint : XviD
Duration : 1h 19mn
Bit rate : 2 362 Kbps
Width : 720 pixels
Height : 304 pixels
Display aspect ratio : 2.35:1
Frame rate : 25.000 fps
Color space : YUV
Chroma subsampling : 4:2:0
Bit depth : 8 bits
Scan type : Progressive
Compression mode : Lossy
Bits/(Pixel*Frame) : 0.432
Stream size : 1.31 GiB (92%)
Writing library : XviD 1.2.1 (UTC 2008-12-04)
Audio
ID : 1
Format : AC-3
Format/Info : Audio Coding 3
Mode extension : CM (complete main)
Format settings, Endianness : Big
Codec ID : 2000
Duration : 1h 19mn
Bit rate mode : Constant
Bit rate : 192 Kbps
Channel(s) : 2 channels
Channel positions : Front: L R
Sampling rate : 48.0 KHz
Bit depth : 16 bits
Compression mode : Lossy
Stream size : 109 MiB (7%)
Alignment : Split accross interleaves
Interleave, duration : 40 ms (1.00 video frame)
Interleave, preload duration : 500 ms

Скриншоты

[Профиль] [ЛС]

Создавать темы 06-Авг-2015 22:25 (спустя 28 дней)

Топик был перенесен из форума Фильмы до 2014 года в форум Фильмы до 2012 года
sergej644
 
Кто просматривает тему:

Форум Тема Автор Размер
3D Мультфильмы Астерикс: Земля Богов в 3Д / Astérix: Le domaine des dieux / Asterix: The Mansions of the Gods 3D (Л.Клиши, А.Астье / L.Clichy, A.Astier) [2014, Мультфильм, Приключения, Комедия, BDrip-AVC] Half... BOSS 4.12 GB
Отечественные cериалы Братья по обмену / Серии: 1-10 из 10 (Александр Жигалкин) [2013, Комедия, HDTV 1080i] К@питан 20.05 GB
Отечественные cериалы Выйти замуж за Пушкина / 1-8 серии из 8 (Валерий Усков) [2016 г., Комедия, HDTVRip] Pensioner 5.73 GB
3D Мультфильмы Гадкий я в 3Д / Despicable Me 3D (Пьер Коффен, Крис Рено / Pierre Coffin, Chris Renaud) [2010, Комедия, приключения, BDremux, 1080p] BD3D BOSS 28.18 GB
Фильмы 2013 года Замок в Италии / Un chateau en Italie (Валерия Бруни-Тедески)[2013,Драма, комедия] WEB-DLRip | P adeei 1.46 GB
Зарубежные сериалы Лучше звоните Солу / Better Call Saul [2017] (Сезон 3 , Серия 1-4 из 10) (Адам Бернштейн) [ Драма, комедия, криминал , WEB-DLRip][1080p][HEVC , 4К][Kravec+LostFilm+NewStudiо+BaibaKo+OmskBird+Jaskier+K... Враг Нароода 17.37 GB
Зарубежные сериалы Лучше звоните Солу / Better Call Saul [2017] (Сезон 3 , Серия 1-8 из 10) (Адам Бернштейн) [ Драма, комедия, криминал , WEB-DLRip][1080p][HEVC][LostFilm+Pythagoras+Kravec+Jaskier+NewStudiо+BaibaKo+Omsk... Враг Нароода 37.18 GB
Фильмы 2012 года Мамы: Трилогия (Евгений Абызов, Сарик Андреасян, Алан Бадоев) [2012-2014. мелодрама, комедия] BDRip | Лицензия BOSS 4.36 GB
Показать сообщения:    

Текущее время: Сегодня 05:41

Часовой пояс: GMT



Вы не можете начинать темы
Вы не можете отвечать на сообщения
Вы не можете редактировать свои сообщения
Вы не можете удалять свои сообщения
Вы не можете голосовать в опросах
Вы не можете прикреплять файлы к сообщениям
Вы не можете скачивать файлы