Кома / Чума / The Plague (2006) WEB-DL 1080p от ExKinoRay | P

 
Author Message

Swager ®

Gender:

Longevity: 3 years 6 months

Posts: 2121



: 4 ()

За внесенный вклад в развитие сайта (1) Top Releaser 2 (1) Mega Seeder 1 (1)
Торрент-статистика

Post 14-Sep-2018 12:56

[Quote]

Информация о фильме
Название: Кома (Чума)
Оригинальное название: The Plague
Год выхода: 2006
Жанр: Ужасы
Режиссер: Хал Масонберг
В ролях: Джеймс Ван Дер Бик, Ивана Миличевич, Брэд Хант, Джошуа Клоуз, Джон П. Коннолли, Ди Уоллес-Стоун, Бриттани Скоуби, Джон Тед Винн, Арни Макферсо
О фильме:
Десять лет прошли с того времени, как дети всего мира погрузились в кому. И сегодня они пробудятся и весь мир сорвется с цепи… Нас ждет сражение между поколениями, дети воюют против взрослых, но время не на их стороне…

Выпущено: США, Armada Pictures, D.H. Blair Film Capital Fund, Midnight Picture Show
Продолжительность: 01:28:10
Перевод: Профессиональный многоголосый
Файл
Кодек: x264
Качество: WEB-DL 1080p
Видео: MPEG-4 AVC, 11.7 Mбит/с, 1920x816
Звук №1: Русский | AC3, 6 ch, 384 Кбит/с
Звук №2: Английский | EAC3, 6 ch, 640 Кбит/с
Субтитры: Английские

Инфо-файл

Формат : Matroska
Версия формата : Version 2
Размер файла : 8,01 Гбайт
Продолжительность : 1 ч. 28 м.
Режим общего битрейта : Переменный
Общий поток : 13,0 Мбит/сек
Название фильма : The.Plague.2006.1080p.AMZN.WEB-DL.zzZGVvv
Дата кодирования : UTC 2018-09-14 11:19:18
Программа кодирования : mkvmerge v5.8.0 ('No Sleep / Pillow') built on Sep 2 2012 15:37:04
Библиотека кодирования : libebml v1.2.3 + libmatroska v1.3.0
Attachements : cover.jpg
Видео
Идентификатор : 1
Формат : AVC
Формат/Информация : Advanced Video Codec
Профиль формата : High@L4
Параметр CABAC формата : Да
Параметр ReFrames формата : 4 кадра
Идентификатор кодека : V_MPEG4/ISO/AVC
Продолжительность : 1 ч. 28 м.
Вид битрейта : Переменный
Битрейт : 11,7 Мбит/сек
Максимальный битрейт : 15,0 Мбит/сек
Ширина : 1920 пикселей
Высота : 816 пикселей
Соотношение сторон : 2,35:1
Режим частоты кадров : Постоянный
Частота кадров : 23,976 кадра/сек
Цветовое пространство : YUV
Субдискретизация насыщенности : 4:2:0
Битовая глубина : 8 бит
Тип развёртки : Прогрессивная
Бит/(Пиксели*Кадры) : 0.312
Размер потока : 7,22 Гбайт (90%)
Заголовок : The.Plague.2006.1080p.AMZN.WEB-DL
Библиотека кодирования : x264 core 148 r2623 d5b2374
Настройки программы : cabac=1 / ref=4 / deblock=1:-1:-1 / analyse=0x3:0x133 / me=umh / subme=9 / psy=1 / psy_rd=1.00:0.15 / mixed_ref=1 / me_range=24 / chroma_me=1 / trellis=2 / 8x8dct=1 / cqm=0 / deadzone=21,11 / fast_pskip=1 / chroma_qp_offset=-3 / threads=25 / lookahead_threads=4 / sliced_threads=0 / nr=150 / decimate=1 / interlaced=0 / bluray_compat=0 / constrained_intra=0 / bframes=8 / b_pyramid=2 / b_adapt=2 / b_bias=0 / direct=3 / weightb=1 / open_gop=0 / weightp=2 / keyint=120 / keyint_min=61 / scenecut=0 / intra_refresh=0 / rc_lookahead=120 / rc=crf / mbtree=1 / crf=18.0 / qcomp=0.60 / qpmin=0 / qpmax=69 / qpstep=4 / vbv_maxrate=15000 / vbv_bufsize=31250 / crf_max=0.0 / nal_hrd=vbr / filler=0 / ip_ratio=1.40 / aq=3:1.00
Язык : English
Default : Да
Forced : Нет
Цветовой диапазон : Limited
Основные цвета : BT.709
Характеристики трансфера : BT.709
Коэффициенты матрицы : BT.709
Аудио #1
Идентификатор : 2
Формат : AC-3
Формат/Информация : Audio Coding 3
Расширение режима : CM (complete main)
Параметр Endianness формата : Big
Идентификатор кодека : A_AC3
Продолжительность : 1 ч. 28 м.
Вид битрейта : Постоянный
Битрейт : 384 Кбит/сек
Каналы : 6 каналов
Расположение каналов : Front: L C R, Side: L R, LFE
Частота : 48,0 КГц
Метод сжатия : С потерями
Размер потока : 242 Мбайт (3%)
Заголовок : MVO
Язык : Russian
Default : Да
Forced : Нет
Аудио #2
Идентификатор : 3
Формат : E-AC-3
Формат/Информация : Audio Coding 3
Параметр Endianness формата : Big
Идентификатор кодека : A_EAC3
Продолжительность : 1 ч. 28 м.
Вид битрейта : Постоянный
Битрейт : 640 Кбит/сек
Каналы : 6 каналов
Расположение каналов : Front: L C R, Side: L R, LFE
Частота : 48,0 КГц
Метод сжатия : С потерями
Размер потока : 404 Мбайт (5%)
Язык : English
Default : Нет
Forced : Нет
Текст #1
Идентификатор : 4
Формат : UTF-8
Идентификатор кодека : S_TEXT/UTF8
Идентификатор кодека/Информация : UTF-8 Plain Text
Язык : English
Default : Нет
Forced : Нет
Текст #2
Идентификатор : 5
Формат : UTF-8
Идентификатор кодека : S_TEXT/UTF8
Идентификатор кодека/Информация : UTF-8 Plain Text
Заголовок : SDH
Язык : English
Default : Нет
Forced : Нет
Релиз от:
[Profile] [PM]
Кто просматривает тему:

Display posts from previous:    

The time now is: Today 10:58

All times are GMT



You cannot post new topics in this forum
You cannot reply to topics in this forum
You cannot edit your posts in this forum
You cannot delete your posts in this forum
You cannot vote in polls in this forum
You cannot attach files in this forum
You cannot download files in this forum