Команда Тигра и гора 1000 драконов / Tiger Team - Der Berg der 1000 Drachen (Петер Герсина / Peter Gersina) [2010, Германия, Швейцария, Австрия, приключения, семейный, DVB-AVC] Dub

 
Автор Сообщение

TorrentFilm ®

Пол:

Стаж: 2 года

Сообщений: 7741



Награды: Нет

Торрент-статистика

Создавать темы 05-Май-2015 00:04

[Цитировать]

Команда Тигра и гора 1000 драконов / Tiger Team - Der Berg der 1000 Drachen
Страна: Германия, Австрия, Швейцария
Жанр: приключения, семейный
Год выпуска: 2010
Продолжительность: 01:21:36
Перевод: профессиональный (дублированный) по заказу ЗАО «Первый канал. Всемирная сеть»
Оригинальная аудиодорожка: нет
Русские субтитры: нет
Режиссёры: Петер Герсина / Peter Gersina
В ролях: Элена Зигмунд-Шульце, Бруно Леон Шуберт, Нина Пролл, Саймон Шварц, Юстус Каммерер, Ирис Бербен, Стипе Эрчег, Дешун Ванг, Нина Пролль, Симон Шварц, Джэймс Таэнака
Описание: Путешествие в таинственные горы и поиск эликсира бессмертия — подходящая миссия для бесстрашной команды тигров!
Наступило лето, расслабленная пора, и команда друзей ждет появления новых заданий и тайн, которые нужно разгадать. Вскоре в руки к Бигги, Люку и Патрику попадает загадочный ключ, и ребята понимают, что новые приключения не за горами. Начинается расследование, которое указывает на связь этого дела с Китаем: найденный ключ может оказаться одним из трех ключей, которые откроют двери Дворца лунного света в горах недалеко от Пекина. Единственный способ выяснить это — отправиться туда...
Доп. информация:

Семпл: https://yadi.sk/i/TTtHMaxmgNxcV
Качество видео: DVB
Формат видео: MPEG-TS
Видео: MPEG4 Video (H264), 720x576@785x576 (4:3), анаморф, 25 fps, 2500 kbps
Аудио: MPEG Audio, 2 сh, 48 kHz, 192 kbps
Трансляция спутникового канала:

MediaInfo

D:\Команда тигров. Гора тысячи драконов. (2010)_DVB by SLuMeP.ts
General #1
ID : 1 (0x1)
Complete name : D:\Команда тигров. Гора тысячи драконов. (2010)_DVB by SLuMeP.ts
Format : MPEG-TS
File size : 1.58 GiB
Duration : 1h 21mn
Overall bit rate mode : Variable
Overall bit rate : 2 775 Kbps
Video #69
ID : 69 (0x45)
Menu ID : 1 (0x1)
Format : AVC
Format/Info : Advanced Video Codec
Format profile : Main@L3.0
Format settings, CABAC : Yes
Format settings, ReFrames : 3 frames
Format settings, GOP : M=4, N=28
Codec ID : 27
Duration : 1h 21mn
Bit rate : 2 443 Kbps
Width : 720 pixels
Height : 576 pixels
Display aspect ratio : 4:3
Frame rate : 25.000 fps
Standard : Component
Color space : YUV
Chroma subsampling : 4:2:0
Bit depth : 8 bits
Scan type : Interlaced
Scan order : Top Field First
Bits/(Pixel*Frame) : 0.236
Stream size : 1.39 GiB (88%)
Color primaries : BT.601 PAL
Transfer characteristics : BT.470 System B, BT.470 System G
Matrix coefficients : BT.601
Audio #68
ID : 68 (0x44)
Menu ID : 1 (0x1)
Format : MPEG Audio
Format version : Version 1
Format profile : Layer 2
Codec ID : 3
Duration : 1h 21mn
Bit rate mode : Constant
Bit rate : 192 Kbps
Channel(s) : 2 channels
Sampling rate : 48.0 KHz
Compression mode : Lossy
Delay relative to video : -40ms
Stream size : 112 MiB (7%)
Language : English

Скриншоты


[Профиль] [ЛС]

Создавать темы 06-Авг-2015 22:35 (спустя 3 месяца 1 день)

Топик был перенесен из форума Фильмы до 2014 года в форум Фильмы до 2012 года
sergej644
 

Создавать темы 12-Июн-2016 07:54 (спустя 1 год 1 месяц)

Топик был перенесен из форума Фильмы 2011 года в форум Фильмы 2010 года
Russian Mafia
 
Кто просматривает тему:

Форум Тема Автор Размер
XXXI Летние Олимпийские игры. Рио-де-Жанейро 2016 (Бразилия) XXXI Летние Олимпийские Игры. Рио-де-Жанейро (Бразилия). Женщины. Командное первенство. 1/8, 1/4, 1/2 финала, за 3-е место, Финал [07.08] (2016) IPTV 1080i Russian Mafia 4.78 GB
XXXI Летние Олимпийские игры. Рио-де-Жанейро 2016 (Бразилия) XXXI Летние Олимпийские Игры. Рио-де-Жанейро (Бразилия). Команда России! Все эфиры за время олимпиады [Матч ТВ] [04.08-21.08] (2016) IPTVRip-AVC BOSS 809 MB
XXXI Летние Олимпийские игры. Рио-де-Жанейро 2016 (Бразилия) XXXI Летние Олимпийские Игры. Рио-де-Жанейро (Бразилия). Мужчины. Спортивная гимнастика. Командное многоборье. Финал [08.08] (2016) IPTVRip 720p ODESSA 5.47 GB
XXXI Летние Олимпийские игры. Рио-де-Жанейро 2016 (Бразилия) XXXI Летние Олимпийские Игры. Рио-де-Жанейро (Бразилия). Стрельба из лука. Женщины. Командное первенство. 1/4, 1/2 финала, Матч за 3-е место, Финал [07.08] (2016) HDTVRip BOSS 1.14 GB
XXXI Летние Олимпийские игры. Рио-де-Жанейро 2016 (Бразилия) XXXI Летние Олимпийские Игры. Рио-де-Жанейро (Бразилия). Стрельба из лука. Мужчины. Командное первенство. Финалы [Матч!] [06.08] (2016) WEBRip-AVC BOSS 325 MB
XXXI Летние Олимпийские игры. Рио-де-Жанейро 2016 (Бразилия) XXXI Летние Олимпийские Игры. Рио-де-Жанейро (Бразилия). Фехтование. Женщины. Сабля. Команды. 1/4 финала, 1/2 финала, финал + Награждение [13.08] (2016) IPTVRip Russian Mafia 4.21 GB
XXXI Летние Олимпийские игры. Рио-де-Жанейро 2016 (Бразилия) XXXI Летние Олимпийские Игры. Рио-де-Жанейро (Бразилия). Фехтование. Мужчины. Рапира. Команды. 1/4 финала, 1/2 финала, финал + Награждение [12.08] (2016) IPTVRip 720p, IPTVRip-AVC BOSS 4.16 GB
XXXI Летние Олимпийские игры. Рио-де-Жанейро 2016 (Бразилия) XXXI Летние Олимпийские Игры. Рио-де-Жанейро (Бразилия). Фехтование. Мужчины. Шпага. Команды. 1/4 финала, 1/2 финала, финал [14.08] (2016) IPTVRip-AVC ODESSA 3.16 GB
Показать сообщения:    

Текущее время: Сегодня 03:05

Часовой пояс: GMT



Вы не можете начинать темы
Вы не можете отвечать на сообщения
Вы не можете редактировать свои сообщения
Вы не можете удалять свои сообщения
Вы не можете голосовать в опросах
Вы не можете прикреплять файлы к сообщениям
Вы не можете скачивать файлы