Команда мечты / La Dream Team (2016) HDRip | Р

 
Автор Сообщение

BOSS ®

Пол:

Стаж: 3 года 2 месяца

Сообщений: 8630

Откуда: ODESSA



Награды: 22 (Подробнее)

Top Seeder 2 (Количество: 1) Mega Seeder 3 (Количество: 1) Top Seeder 3 (Количество: 1)
Торрент-статистика

Создавать темы 10-Окт-2017 07:24

[Цитировать]

Команда мечты / La Dream Team
Страна: Франция
Производство: DD Productions, Orange Studio, Source Films, TF1, TMC, uFund, uMedia Family
Год выпуска: 2016
Жанр: комедия
Продолжительность: 01:36:56
Режиссер: Тома Соррио
Авторы сценария: Тома Соррио, Морган Спиллемекер
В ролях: Меди Садун, Жерар Депардье, Шанталь Лоби, Барбара Кабрита, Лиа Лопез, Патрик Тимси, Винсент Бауэн, Тео Фернандез, Винсент Н’Диайе
Описание: Максим Белло является одним из самых известных и высокооплачиваемых французских футболистов. У него много денег и масса поклонников. Но герой настолько же заносчив и самоуверен, насколько талантлив. На футбольном поле он настоящий профессионал, поражающий публику своим мастерством, но вне его он постоянно попадает в неприятности из-за своего непростого характера. Очередной инцидент вне поля становится для Максима настоящей трагедией — он по собственной глупости получает серьёзную травму ноги. Его карьера оказывается под угрозой, начинают ходить слухи, что он больше не сможет выйти на футбольное поле, и люди постепенно забывают о нём. Чтобы исправить пошатнувшуюся репутацию и перезапустить карьеру, агент предлагает ему отправиться в родную деревню, где до сих пор живёт его отец...

Перевод: Профессиональный (многоголосый, закадровый) | телеканал Кинопоказ HD2
Субтитры: нет-Качество: HDRip
Формат: АVI
Видео кодек: XviD
Аудио кодек: АС3
Видео: 720x304 (2.35:1), 24.000 fps, XviD ~1 948 kbps avg
Аудио: 48.0 kHz, AC3 Dolby Digital, 2/0 (L,R) ch, ~192 kbps
Дата премьеры (мир): 16 марта 2016

Media Info

General
Format : AVI
Format/Info : Audio Video Interleave
File size : 1.46 GiB
Duration : 1 h 36 min
Overall bit rate : 2 149 kb/s
Writing application : VirtualDubMod 1.5.10.3 | (build 2550/release)
Writing library : VirtualDubMod build 2550/release
Video
ID : 0
Format : MPEG-4 Visual
Format profile : Advanced Simple@L5
Format settings : BVOP1 / Custom Matrix
Format settings, BVOP : 1
Format settings, QPel : No
Format settings, GMC : No warppoints
Format settings, Matrix : Custom
Codec ID : XVID
Codec ID/Hint : XviD
Duration : 1 h 36 min
Bit rate : 1 948 kb/s
Width : 720 pixels
Height : 304 pixels
Display aspect ratio : 2.35:1
Frame rate : 24.000 FPS
Color space : YUV
Chroma subsampling : 4:2:0
Bit depth : 8 bits
Scan type : Progressive
Compression mode : Lossy
Bits/(Pixel*Frame) : 0.371
Stream size : 1.32 GiB (91%)
Writing library : XviD 73
Audio
ID : 1
Format : AC-3
Format/Info : Audio Coding 3
Format settings, Endianness : Big
Codec ID : 2000
Duration : 1 h 36 min
Bit rate mode : Constant
Bit rate : 192 kb/s
Channel(s) : 2 channels
Channel positions : Front: L R
Sampling rate : 48.0 kHz
Frame rate : 31.250 FPS (1536 SPF)
Bit depth : 16 bits
Compression mode : Lossy
Stream size : 133 MiB (9%)
Alignment : Split accross interleaves
Interleave, duration : 42 ms (1.00 video frame)
Interleave, preload duratio : 500 ms
Service kind : Complete Main

Скриншоты

[Профиль] [ЛС]
Кто просматривает тему:

Форум Тема Автор Размер
XXXI Летние Олимпийские игры. Рио-де-Жанейро 2016 (Бразилия) XXXI Летние Олимпийские Игры. Рио-де-Жанейро (Бразилия). Женщины. Командное первенство. 1/8, 1/4, 1/2 финала, за 3-е место, Финал [07.08] (2016) IPTV 1080i Russian Mafia 4.78 GB
XXXI Летние Олимпийские игры. Рио-де-Жанейро 2016 (Бразилия) XXXI Летние Олимпийские Игры. Рио-де-Жанейро (Бразилия). Команда России! Все эфиры за время олимпиады [Матч ТВ] [04.08-21.08] (2016) IPTVRip-AVC BOSS 809 MB
XXXI Летние Олимпийские игры. Рио-де-Жанейро 2016 (Бразилия) XXXI Летние Олимпийские Игры. Рио-де-Жанейро (Бразилия). Мужчины. Спортивная гимнастика. Командное многоборье. Финал [08.08] (2016) IPTVRip 720p ODESSA 5.47 GB
XXXI Летние Олимпийские игры. Рио-де-Жанейро 2016 (Бразилия) XXXI Летние Олимпийские Игры. Рио-де-Жанейро (Бразилия). Стрельба из лука. Женщины. Командное первенство. 1/4, 1/2 финала, Матч за 3-е место, Финал [07.08] (2016) HDTVRip BOSS 1.14 GB
XXXI Летние Олимпийские игры. Рио-де-Жанейро 2016 (Бразилия) XXXI Летние Олимпийские Игры. Рио-де-Жанейро (Бразилия). Стрельба из лука. Мужчины. Командное первенство. Финалы [Матч!] [06.08] (2016) WEBRip-AVC BOSS 325 MB
XXXI Летние Олимпийские игры. Рио-де-Жанейро 2016 (Бразилия) XXXI Летние Олимпийские Игры. Рио-де-Жанейро (Бразилия). Фехтование. Женщины. Сабля. Команды. 1/4 финала, 1/2 финала, финал + Награждение [13.08] (2016) IPTVRip Russian Mafia 4.21 GB
XXXI Летние Олимпийские игры. Рио-де-Жанейро 2016 (Бразилия) XXXI Летние Олимпийские Игры. Рио-де-Жанейро (Бразилия). Фехтование. Мужчины. Рапира. Команды. 1/4 финала, 1/2 финала, финал + Награждение [12.08] (2016) IPTVRip 720p, IPTVRip-AVC BOSS 4.16 GB
XXXI Летние Олимпийские игры. Рио-де-Жанейро 2016 (Бразилия) XXXI Летние Олимпийские Игры. Рио-де-Жанейро (Бразилия). Фехтование. Мужчины. Шпага. Команды. 1/4 финала, 1/2 финала, финал [14.08] (2016) IPTVRip-AVC ODESSA 3.16 GB
Показать сообщения:    

Текущее время: Сегодня 12:50

Часовой пояс: GMT



Вы не можете начинать темы
Вы не можете отвечать на сообщения
Вы не можете редактировать свои сообщения
Вы не можете удалять свои сообщения
Вы не можете голосовать в опросах
Вы не можете прикреплять файлы к сообщениям
Вы не можете скачивать файлы