Команда «А» / The A-Team (Джо Карнахан / Joe Carnahan) [2010, США, боевик, комедия, приключения, BDRip-AVC] [Расширенная версия / Extended version] Dub + MVO (1 Канал) + Sub Eng, Rus + Original Eng

 
Автор Сообщение

TorrentFilm ®

Пол:

Стаж: 1 год 11 месяцев

Сообщений: 7741



Награды: Нет

Торрент-статистика

Создавать темы 06-Июл-2015 00:05

[Цитировать]

Команда «А» / The A-Team
«План 'Б' не предусмотрен»--Расширенная версия / Extended version
-- Страна: США
Студия: 20th Century Fox Film Corporation
Жанр: боевик, триллер, комедия, приключения
Год выпуска: 2010
Продолжительность: 02:13:34
Перевод 1: Профессиональный (дублированный) Blu-ray CEE
Перевод 2: Профессиональный (многоголосый закадровый) 1 Канал
Оригинальная аудиодорожка: Английский
Cубтитры: Русские (Форсированные), Русские (Форсированные. SoRnYaK), Русские (Полные), Русские (Voronine), English (Forced), English (Full), English (SDH), English (Commentary)
Формат субтитров: softsub (SRT)
Навигация по главам: Есть--Режиссер: Джо Карнахан / Joe Carnahan--В ролях: Лиам Нисон, Брэдли Купер, Джессика Бил, Куинтон Джексон, Шарлто Копли, Патрик Уилсон, Джералд МакРэйни, Генри Черни, Юл Васкез, Брайан Блум, Мори Стерлинг, Терри Чен, Омари Хардвик, Анита Браун, Алекс Мэдисон, Кэти Боскович, Брендан Пенни, Джинн-Мелани Хаасбрек, Натали Джеймс...--Описание: Группа ветеранов войны в Ираке, несправедливо обвиненных в преступлении, пытается найти истинных виновников и вернуть себе честное имя...--Доп. информация: КиноПоиск | IMDb | Сэмпл | --Качество видео: BDRip-AVC
Формат видео: MKV
Видео: MPEG4/ISO/AVC, 1120x476, 4160 Kbps, 23.976 fps, 0.325 bit/pixel.
Аудио 1: AC3, 3/2 (L,C,R,l,r) + LFE ch, 48 kHz, 448 kbps |Дубляж. Blu-ray CEE|
Аудио 2: AC3, 2/0 (L,R) ch, 48 kHz, 192 kbps |MVO. 1 Канал|
Аудио 3: AC3, 3/2 (L,C,R,l,r) + LFE ch, 48 kHz, 448 kbps |Original|

Аудио отдельно на файлообменнике (AVO. А. Гаврилов / VO. Acolith / Eng. Commentary)

Аудио 4: AC3, 3/2 (L,C,R,l,r) + LFE ch, 48 kHz, 448 kbps |AVO. А. Гаврилов|
Аудио 5: AC3, 3/2 (L,C,R,l,r) + LFE ch, 48 kHz, 448 kbps |VO. Acolith|
Аудио 6: AC3, 2/0 (L,R) ch, 48 kHz, 224 kbps |Commentary|

Скриншоты

Скриншоты. fastpic

MediaInfo/x264x264

raw [info]: 1120x476p 1:1 @ 24000/1001 fps (cfr)
x264 [info]: using SAR=1/1
x264 [info]: using cpu capabilities: MMX2 SSE2Fast SSSE3 SSE4.2 AVX
x264 [info]: profile High, level 4.1x264 [info]: frame I:1588 Avg QP:16.06 size: 73856
x264 [info]: frame P:43071 Avg QP:17.76 size: 40195
x264 [info]: frame B:147480 Avg QP:20.24 size: 16421
x264 [info]: consecutive B-frames: 2.6% 3.3% 9.5% 22.3% 16.7% 30.6% 5.2% 3.7% 1.5% 1.4% 1.1% 0.5% 0.6% 0.4% 0.5%
x264 [info]: mb I I16..4: 7.2% 77.9% 14.9%
x264 [info]: mb P I16..4: 2.7% 29.1% 2.5% P16..4: 28.4% 18.9% 11.3% 0.6% 0.1% skip: 6.4%
x264 [info]: mb B I16..4: 0.3% 2.6% 0.2% B16..8: 39.1% 14.5% 4.4% direct: 9.7% skip:29.2% L0:43.6% L1:41.0% BI:15.4%
x264 [info]: 8x8 transform intra:84.2% inter:60.8%
x264 [info]: coded y,uvDC,uvAC intra: 85.5% 87.3% 77.9% inter: 38.7% 36.0% 14.0%
x264 [info]: i16 v,h,dc,p: 50% 15% 11% 24%
x264 [info]: i8 v,h,dc,ddl,ddr,vr,hd,vl,hu: 10% 9% 12% 9% 12% 12% 12% 11% 13%
x264 [info]: i4 v,h,dc,ddl,ddr,vr,hd,vl,hu: 12% 8% 6% 9% 15% 14% 13% 11% 12%
x264 [info]: i8c dc,h,v,p: 56% 16% 14% 14%
x264 [info]: Weighted P-Frames: Y:5.6% UV:3.3%
x264 [info]: ref P L0: 44.5% 10.9% 18.8% 7.2% 5.8% 3.9% 3.4% 1.9% 1.8% 1.6% 0.3% 0.0%
x264 [info]: ref B L0: 69.6% 13.7% 6.6% 3.5% 2.4% 1.9% 1.4% 0.6% 0.3%
x264 [info]: ref B L1: 92.1% 7.9%
x264 [info]: kb/s:4262.96
x264 [total]: encoded 192139 frames
General
Unique ID : 171034870386493038303403705618700066706 (0x80AC1E2AD6D30130B2B62CAF948E5F92)
Complete name : The A-Team (2010).mkv
Format : Matroska
Format version : Version 4 / Version 2
File size : 5.00 GiB
Duration : 2h 13mn
Overall bit rate : 5 354 Kbps
Movie name : Команда «А» / The A-Team (2010)
Encoded date : UTC 2015-07-03 09:26:21
Writing application : mkvmerge v8.1.0 ('Psychedelic Postcard') 64bit
Writing library : libebml v1.3.1 + libmatroska v1.4.2
Attachements : cover.jpg
DURATION : 02:13:20.366000000
NUMBER_OF_FRAMES : 2257
NUMBER_OF_BYTES : 111526
_STATISTICS_WRITING_APP : mkvmerge v8.1.0 ('Psychedelic Postcard') 64bit
_STATISTICS_WRITING_DATE_UT : 2015-07-03 09:26:21
_STATISTICS_TAGS : BPS DURATION NUMBER_OF_FRAMES NUMBER_OF_BYTES
Video
ID : 1
Format : AVC
Format/Info : Advanced Video Codec
Format profile : High@L4.1
Format settings, CABAC : Yes
Format settings, ReFrames : 10 frames
Codec ID : V_MPEG4/ISO/AVC
Duration : 2h 13mn
Bit rate : 4 160 Kbps
Width : 1 120 pixels
Height : 476 pixels
Display aspect ratio : 2.35:1
Frame rate mode : Constant
Frame rate : 23.976 fps
Color space : YUV
Chroma subsampling : 4:2:0
Bit depth : 8 bits
Scan type : Progressive
Bits/(Pixel*Frame) : 0.325
Stream size : 3.88 GiB (78%)
Title : By optik.1557
Writing library : x264 core 146 r2538kMod 121396c
Encoding settings : cabac=1 / ref=10 / deblock=1:-3:-2 / analyse=0x3:0x133 / me=umh / subme=10 / psy=1 / fade_compensate=0.00 / psy_rd=1.05:0.03 / mixed_ref=1 / me_range=32 / chroma_me=1 / trellis=2 / 8x8dct=1 / cqm=0 / deadzone=21,11 / fast_pskip=0 / chroma_qp_offset=-3 / threads=6 / lookahead_threads=1 / sliced_threads=0 / nr=0 / decimate=1 / interlaced=0 / bluray_compat=0 / constrained_intra=0 / fgo=0 / bframes=14 / b_pyramid=2 / b_adapt=2 / b_bias=0 / direct=1 / weightb=1 / open_gop=0 / weightp=2 / keyint=250 / keyint_min=23 / scenecut=40 / intra_refresh=0 / rc_lookahead=60 / rc=crf / mbtree=0 / crf=17.2000 / qcomp=0.60 / qpmin=0 / qpmax=69 / qpstep=4 / vbv_maxrate=50000 / vbv_bufsize=62500 / crf_max=0.0 / nal_hrd=none / filler=0 / ip_ratio=1.40 / pb_ratio=1.30 / aq=2:0.90 / zones=183337,192139,crf=32.4
Language : English
Default : Yes
Forced : No
Color primaries : BT.709
Transfer characteristics : BT.709
Matrix coefficients : BT.709
Color range : Limited
DURATION : 02:13:33.798000000
NUMBER_OF_FRAMES : 192139
NUMBER_OF_BYTES : 4270314360
_STATISTICS_WRITING_APP : mkvmerge v8.1.0 ('Psychedelic Postcard') 64bit
_STATISTICS_WRITING_DATE_UT : 2015-07-03 09:26:21
_STATISTICS_TAGS : BPS DURATION NUMBER_OF_FRAMES NUMBER_OF_BYTES
Audio #1
ID : 2
Format : AC-3
Format/Info : Audio Coding 3
Mode extension : CM (complete main)
Format settings, Endianness : Big
Codec ID : A_AC3
Duration : 2h 13mn
Bit rate mode : Constant
Bit rate : 448 Kbps
Channel(s) : 6 channels
Channel positions : Front: L C R, Side: L R, LFE
Sampling rate : 48.0 KHz
Bit depth : 16 bits
Compression mode : Lossy
Stream size : 428 MiB (8%)
Title : Дубляж
Language : Russian
Default : Yes
Forced : No
Audio #2
ID : 3
Format : AC-3
Format/Info : Audio Coding 3
Mode extension : CM (complete main)
Format settings, Endianness : Big
Codec ID : A_AC3
Duration : 2h 13mn
Bit rate mode : Constant
Bit rate : 192 Kbps
Channel(s) : 2 channels
Channel positions : Front: L R
Sampling rate : 48.0 KHz
Bit depth : 16 bits
Compression mode : Lossy
Stream size : 183 MiB (4%)
Title : MVO. 1 Канал
Language : Russian
Default : No
Forced : No
Audio #3
ID : 4
Format : AC-3
Format/Info : Audio Coding 3
Mode extension : CM (complete main)
Format settings, Endianness : Big
Codec ID : A_AC3
Duration : 2h 13mn
Bit rate mode : Constant
Bit rate : 448 Kbps
Channel(s) : 6 channels
Channel positions : Front: L C R, Side: L R, LFE
Sampling rate : 48.0 KHz
Bit depth : 16 bits
Compression mode : Lossy
Stream size : 428 MiB (8%)
Title : Original
Language : English
Default : No
Forced : No
Text #1
ID : 5
Format : UTF-8
Codec ID : S_TEXT/UTF8
Codec ID/Info : UTF-8 Plain Text
Title : Форсированные
Language : Russian
Default : Yes
Forced : No
Text #2
ID : 6
Format : UTF-8
Codec ID : S_TEXT/UTF8
Codec ID/Info : UTF-8 Plain Text
Title : Форсированные. SoRnYaK
Language : Russian
Default : No
Forced : No
Text #3
ID : 7
Format : UTF-8
Codec ID : S_TEXT/UTF8
Codec ID/Info : UTF-8 Plain Text
Title : Полные. Blu-ray CEE
Language : Russian
Default : No
Forced : No
Text #4
ID : 8
Format : UTF-8
Codec ID : S_TEXT/UTF8
Codec ID/Info : UTF-8 Plain Text
Title : Voronine
Language : Russian
Default : No
Forced : No
Text #5
ID : 9
Format : UTF-8
Codec ID : S_TEXT/UTF8
Codec ID/Info : UTF-8 Plain Text
Title : Forced
Language : English
Default : No
Forced : No
Text #6
ID : 10
Format : UTF-8
Codec ID : S_TEXT/UTF8
Codec ID/Info : UTF-8 Plain Text
Title : Full
Language : English
Default : No
Forced : No
Text #7
ID : 11
Format : UTF-8
Codec ID : S_TEXT/UTF8
Codec ID/Info : UTF-8 Plain Text
Title : SDH
Language : English
Default : No
Forced : No
Text #8
ID : 12
Format : UTF-8
Codec ID : S_TEXT/UTF8
Codec ID/Info : UTF-8 Plain Text
Title : Commentary
Language : English
Default : No
Forced : No
Menu
00:00:00.000 : en:00:00:00.000
00:05:17.400 : en:00:05:17.400
00:13:31.269 : en:00:13:31.269
00:21:10.769 : en:00:21:10.769
00:26:32.341 : en:00:26:32.341
00:37:42.802 : en:00:37:42.802
00:45:23.554 : en:00:45:23.554
00:49:30.259 : en:00:49:30.259
00:56:53.869 : en:00:56:53.869
01:02:40.548 : en:01:02:40.548
01:09:43.054 : en:01:09:43.054
01:15:19.640 : en:01:15:19.640
01:23:06.356 : en:01:23:06.356
01:28:54.579 : en:01:28:54.579
01:35:56.834 : en:01:35:56.834
01:38:35.951 : en:01:38:35.951
01:43:12.519 : en:01:43:12.519
01:49:42.826 : en:01:49:42.826
01:57:19.574 : en:01:57:19.574
02:07:00.654 : en:02:07:00.654
[Профиль] [ЛС]

Создавать темы 06-Авг-2015 22:25 (спустя 1 месяц)

Топик был перенесен из форума Фильмы до 2014 года в форум Фильмы до 2012 года
sergej644
 

Создавать темы 12-Июн-2016 07:55 (спустя 11 месяцев 6 дней)

Топик был перенесен из форума Фильмы 2011 года в форум Фильмы 2010 года
Russian Mafia
 
Кто просматривает тему:

Форум Тема Автор Размер
XXXI Летние Олимпийские игры. Рио-де-Жанейро 2016 (Бразилия) XXXI Летние Олимпийские Игры. Рио-де-Жанейро (Бразилия). Женщины. Командное первенство. 1/8, 1/4, 1/2 финала, за 3-е место, Финал [07.08] (2016) IPTV 1080i Russian Mafia 4.78 GB
XXXI Летние Олимпийские игры. Рио-де-Жанейро 2016 (Бразилия) XXXI Летние Олимпийские Игры. Рио-де-Жанейро (Бразилия). Команда России! Все эфиры за время олимпиады [Матч ТВ] [04.08-21.08] (2016) IPTVRip-AVC BOSS 809 MB
XXXI Летние Олимпийские игры. Рио-де-Жанейро 2016 (Бразилия) XXXI Летние Олимпийские Игры. Рио-де-Жанейро (Бразилия). Мужчины. Спортивная гимнастика. Командное многоборье. Финал [08.08] (2016) IPTVRip 720p ODESSA 5.47 GB
XXXI Летние Олимпийские игры. Рио-де-Жанейро 2016 (Бразилия) XXXI Летние Олимпийские Игры. Рио-де-Жанейро (Бразилия). Стрельба из лука. Женщины. Командное первенство. 1/4, 1/2 финала, Матч за 3-е место, Финал [07.08] (2016) HDTVRip BOSS 1.14 GB
XXXI Летние Олимпийские игры. Рио-де-Жанейро 2016 (Бразилия) XXXI Летние Олимпийские Игры. Рио-де-Жанейро (Бразилия). Стрельба из лука. Мужчины. Командное первенство. Финалы [Матч!] [06.08] (2016) WEBRip-AVC BOSS 325 MB
XXXI Летние Олимпийские игры. Рио-де-Жанейро 2016 (Бразилия) XXXI Летние Олимпийские Игры. Рио-де-Жанейро (Бразилия). Фехтование. Женщины. Сабля. Команды. 1/4 финала, 1/2 финала, финал + Награждение [13.08] (2016) IPTVRip Russian Mafia 4.21 GB
XXXI Летние Олимпийские игры. Рио-де-Жанейро 2016 (Бразилия) XXXI Летние Олимпийские Игры. Рио-де-Жанейро (Бразилия). Фехтование. Мужчины. Рапира. Команды. 1/4 финала, 1/2 финала, финал + Награждение [12.08] (2016) IPTVRip 720p, IPTVRip-AVC BOSS 4.16 GB
XXXI Летние Олимпийские игры. Рио-де-Жанейро 2016 (Бразилия) XXXI Летние Олимпийские Игры. Рио-де-Жанейро (Бразилия). Фехтование. Мужчины. Шпага. Команды. 1/4 финала, 1/2 финала, финал [14.08] (2016) IPTVRip-AVC ODESSA 3.16 GB
Показать сообщения:    

Текущее время: Сегодня 07:00

Часовой пояс: GMT



Вы не можете начинать темы
Вы не можете отвечать на сообщения
Вы не можете редактировать свои сообщения
Вы не можете удалять свои сообщения
Вы не можете голосовать в опросах
Вы не можете прикреплять файлы к сообщениям
Вы не можете скачивать файлы