Коломбиана / Colombiana (2011) BDRip 1080p от denis 100

 
Автор Сообщение

Russian Mafia ®

Пол:

Стаж: 1 год 8 месяцев

Сообщений: 4252



Награды: 10 (Подробнее)

Mega Seeder 2 (Количество: 1) Top Releaser 3 (Количество: 1) Top Releaser 5 (Количество: 1)
Торрент-статистика

Создавать темы 25-Авг-2015 11:13

[Цитировать]

Информация о фильме
Название: Коломбиана
Оригинальное название: Colombiana
Год выпуска: 2011
Жанр: Боевик, триллер, драма
Выпущено: США, Франция, A.J.O.Z. Films, Canal+ [fr], Ciné Cinémas, Europa Corp., Grive Productions, TF1 Films Production
Режиссер: Оливье Мегатон
В ролях: Зои Салдана, Хорди Молья, Ленни Джеймс, Амандла Стенберг, Майкл Вартан, Клифф Кёртис, Бету Бенитес, Джесси Боррего, Синтия Аддай-Робинсон, Энджел Гарница, Офелия Медина, Каллум Блу, Сэм Дуглас, Грэм МакТавиш, Аффиф Бен Бадра, Дэвид Кларк, Билли Слотер, Андреа Хелен, Джон МакКоннелл, Себастьен Перез, Марк Де Алессандро, Макс Мартини, Тони Далтон, Джулиан Седжвик, Жюльен Мюллер, Гильермо Риос, Луис Тоскано, Хавьер Эскобар, Майкл Шауэрс, Уэс Кэннон, Дуглас Рао, Джули Николет, Стефан Орсолани, Стив Херсон, Уильям Рэймонд, Альфредо Гонзалес, Алехандро Перраса, Дональд Маршалл
Перевод: Дублированный
Сюжет фильма
Ее родителей убивают на ее глазах, Кэт было всего девять лет. Но она успевает убежать от убийц своих родителей и уезжает в Чикаго к своему родному дяде. Кэт просит дядю обучить ее всем навыкам профессионального киллера, что бы отомстить за смерть родителей. Через несколько лет она становиться киллером и работает на своего дядя, а так же она идет к своей цели.

Файл
Качество: BDRip 1080p (исходник Blu-ray)
Видео: 1920x816, 9 024 Кбит/сек, 24.000 кадр/сек, AVC, x264, High@L4.1, 0.240Бит/[Пиксели*Кадры], 2pass
Аудио 1: AC3 5.1 48 kHz 640 kbps - Дублированный
Аудио 2: AC3 5.1 48 kHz 640 kbps - English
Чаптеры: есть
Субтитры: English
Продолжительность: 01:47:47Автор Рипа:

Скриншоты

MediaInfo

Format : Matroska
Format version : Version 2
File size : 7.75 GiB
Duration : 1h 47mn
Overall bit rate : 10.3 Mbps
Movie name : Kolombiana.(2011).BDRip.1080p.[denis100]
Encoded date : UTC 2014-01-21 08:34:19
Writing application : mkvmerge v5.8.0 ('No Sleep / Pillow') built on Sep 2 2012 15:37:04
Writing library : libebml v1.2.3 + libmatroska v1.3.0
Video
ID : 1
Format : AVC
Format/Info : Advanced Video Codec
Format profile : High@L4.1
Format settings, CABAC : Yes
Format settings, ReFrames : 5 frames
Codec ID : V_MPEG4/ISO/AVC
Duration : 1h 47mn
Bit rate : 9 024 Kbps
Width : 1 920 pixels
Height : 816 pixels
Display aspect ratio : 2.35:1
Frame rate mode : Constant
Frame rate : 24.000 fps
Color space : YUV
Chroma subsampling : 4:2:0
Bit depth : 8 bits
Scan type : Progressive
Bits/(Pixel*Frame) : 0.240
Stream size : 6.63 GiB (86%)
Title : Kolombiana.(2011).BDRip.1080p от _denis_100
Writing library : x264 core 140 r2377 1ca7bb9
Encoding settings : cabac=1 / ref=5 / deblock=1:-3:-3 / analyse=0x3:0x133 / me=umh / subme=11 / psy=1 / psy_rd=1.00:0.10 / mixed_ref=1 / me_range=32 / chroma_me=1 / trellis=2 / 8x8dct=1 / cqm=0 / deadzone=21,11 / fast_pskip=0 / chroma_qp_offset=-3 / threads=6 / lookahead_threads=1 / sliced_threads=0 / nr=0 / decimate=0 / interlaced=0 / bluray_compat=0 / constrained_intra=0 / bframes=8 / b_pyramid=2 / b_adapt=2 / b_bias=0 / direct=3 / weightb=1 / open_gop=0 / weightp=2 / keyint=250 / keyint_min=24 / scenecut=40 / intra_refresh=0 / rc=2pass / mbtree=0 / bitrate=9024 / ratetol=1.0 / qcomp=0.60 / qpmin=0 / qpmax=69 / qpstep=4 / cplxblur=20.0 / qblur=0.5 / ip_ratio=1.40 / pb_ratio=1.30 / aq=1:0.80
Language : English
Default : Yes
Forced : No
Audio #1
ID : 2
Format : AC-3
Format/Info : Audio Coding 3
Mode extension : CM (complete main)
Format settings, Endianness : Big
Codec ID : A_AC3
Duration : 1h 47mn
Bit rate mode : Constant
Bit rate : 640 Kbps
Channel count : 6 channels
Channel positions : Front: L C R, Side: L R, LFE
Sampling rate : 48.0 KHz
Bit depth : 16 bits
Compression mode : Lossy
Stream size : 493 MiB (6%)
Title : Дублированный
Language : Russian
Default : Yes
Forced : No
Audio #2
ID : 3
Format : AC-3
Format/Info : Audio Coding 3
Mode extension : CM (complete main)
Format settings, Endianness : Big
Codec ID : A_AC3
Duration : 1h 47mn
Bit rate mode : Constant
Bit rate : 640 Kbps
Channel count : 6 channels
Channel positions : Front: L C R, Side: L R, LFE
Sampling rate : 48.0 KHz
Bit depth : 16 bits
Compression mode : Lossy
Stream size : 493 MiB (6%)
Title : English
Language : English
Default : No
Forced : No
Text
ID : 4
Format : UTF-8
Codec ID : S_TEXT/UTF8
Codec ID/Info : UTF-8 Plain Text
Title : Русские
Language : Russian
Default : No
Forced : No
Menu
00:00:00.000 : en:00:00:00.000
00:07:13.375 : en:00:07:13.375
00:13:38.500 : en:00:13:38.500
00:20:13.792 : en:00:20:13.792
00:26:37.917 : en:00:26:37.917
00:34:30.917 : en:00:34:30.917
00:41:39.875 : en:00:41:39.875
00:48:04.000 : en:00:48:04.000
00:55:51.667 : en:00:55:51.667
01:02:32.667 : en:01:02:32.667
01:10:30.792 : en:01:10:30.792
01:17:55.792 : en:01:17:55.792
01:24:53.042 : en:01:24:53.042
01:31:40.000 : en:01:31:40.000
01:39:04.417 : en:01:39:04.417
01:44:55.958 : en:01:44:55.958
[Профиль] [ЛС]
Показать сообщения:    

Текущее время: Сегодня 00:45

Часовой пояс: GMT



Вы не можете начинать темы
Вы не можете отвечать на сообщения
Вы не можете редактировать свои сообщения
Вы не можете удалять свои сообщения
Вы не можете голосовать в опросах
Вы не можете прикреплять файлы к сообщениям
Вы не можете скачивать файлы